<?xml version="1.0" standalone="no"?>
<!DOCTYPE svg PUBLIC "-//W3C//DTD SVG 1.1//EN" "http://www.w3.org/Graphics/SVG/1.1/DTD/svg11.dtd">
<svg xmlns="http://www.w3.org/2000/svg">
<metadata>
This is a custom SVG font generated by IcoMoon.
<iconset grid="16"></iconset>
</metadata>
<defs>
<font id="icomoon" horiz-adv-x="512">
<font-face units-per-em="512" ascent="480" descent="-32"/>
<missing-glyph horiz-adv-x="512"/>
<glyph class="hidden" unicode="" d="M0,480L 512 -32L0 -32 z" horiz-adv-x="0"/>
<glyph unicode="" d="M 512,184.778 L 256,383.491 L 0,184.777 L 0,265.796 L 256,464.509 L 512,265.795 ZM 448,192 L 448,0 L 320,0 L 320,128 L 192,128 L 192,0 L 64,0 L 64,192 L 256,336 Z"/>
<glyph unicode="" d="M 512,176L 416,272L 416,416L 352,416L 352,336L 256,432L0,176L0,160L 64,160L 64,0L 224,0L 224,96L 288,96L 288,0L 448,0L 448,160L 512,160 z"/>
<glyph unicode="" d="M 256,448L0,192L 64,192L 256,384L 448,192L 512,192 		zM 96,160L 96,0L 224,0L 224,128L 288,128L 288,0L 416,0L 416,160L 256,320 		z"/>
<glyph unicode="" d="M 256,416L0,192l 64,0 l0-160 l 128,0 l0,96 l 128,0 l0-96 l 128,0 L 448,192 l 64,0 L 256,416z M 240,192l-48,0 l0,48 l 48,0 L 240,192 z M 240,272l-48,0 l0,48 l 48,0 L 240,272 z M 320,192l-48,0 
		l0,48 l 48,0 L 320,192 z M 320,272l-48,0 l0,48 l 48,0 L 320,272 z"/>
<glyph unicode="" d="M 448,192 L 448,0 L 64,0 L 64,192 L 128,192 L 128,64 L 384,64 L 384,192 ZM 512,184.777 L 256,383.491 L 0,184.777 L 0,265.796 L 256,464.509 L 512,265.795 Z"/>
<glyph unicode="" d="M 256,448L0,192l 48-48l 48,48l 32-192l 128,0 l 128,0 l 32,192l 48-48l 48,48L 256,448z M 256,242.746c-24.994,0-45.256,20.26-45.256,45.254
		s 20.262,45.255, 45.256,45.255c 24.992,0, 45.255-20.262, 45.255-45.255C 301.255,263.006, 280.992,242.746, 256,242.746z"/>
<glyph unicode="" d="M 256,448L0,192l 48-48l 48,48l 32-192l 96,0 l0,96 l 64,0 l0-96 l 96,0 l 32,192l 48-48l 48,48L 256,448z M 256,242.746
		c-24.994,0-45.256,20.26-45.256,45.254s 20.262,45.255, 45.256,45.255c 24.992,0, 45.255-20.262, 45.255-45.255
		C 301.255,263.006, 280.992,242.746, 256,242.746z"/>
<glyph unicode="" d="M 256,480L0,288l0-96 l 64,48l0-240 c0-17.6, 14.4-32, 32-32l 320,0 c 17.6,0, 32,14.4, 32,32L 448,240 l 64-48l0,96 L 256,480z M 416,0.058
	c-0.017-0.020-0.038-0.041-0.058-0.058L 320,0 L 320,160 L 192,160 l0-160 L 96.058,0 c-0.020,0.017-0.041,0.038-0.058,0.058L 96,264 L 256,384l 160-120L 416,0.058 z"/>
<glyph unicode="" d="M 256,480L0,288l0-96 l 64,48l0-240 c0-17.6, 14.399-32, 32-32l 320,0 c 17.6,0, 32,14.4, 32,32L 448,240 l 64-48l0,96 L 256,480z M 416,0.058
		c-0.018-0.020-0.038-0.041-0.059-0.058L 256,0 L 256,160 l-96,0 l0-160 L 96.058,0 c-0.020,0.017-0.041,0.038-0.058,0.058L 96,264 L 256,384l 160-120L 416,0.058 zM 288,256L 352,256L 352,192L 288,192z"/>
<glyph unicode="" d="M 128,416L0,256L 135,256L 263,416 	zM0,224L 128,224L 128,0L0,0zM 320,416L 160,224l0-224 l 128,0 l0,96 c0,17.674, 14.327,32, 32,32s 32-14.326, 32-32l0-96 l 128,0 L 480,224 L 320,416z"/>
<glyph unicode="" d="M0-32l 256,0 L 256,480 L0,480 L0-32 z M 160,416l 64,0 l0-64 l-64,0 L 160,416 z M 160,288l 64,0 l0-64 l-64,0 L 160,288 z M 160,160l 64,0 l0-64 l-64,0 L 160,160 z M 32,416l 64,0 l0-64 L 32,352 L 32,416 z M 32,288
			l 64,0 l0-64 L 32,224 L 32,288 z M 32,160l 64,0 l0-64 L 32,96 L 32,160 zM 288,320L 512,320L 512,288L 288,288zM 288-32L 352-32L 352,96L 448,96L 448-32L 512-32L 512,256L 288,256 		z"/>
<glyph unicode="" d="M 448,352L 448,416 L0,416 l0-352 c0-17.673, 14.327-32, 32-32l 432,0 c 26.511,0, 48,21.489, 48,48L 512,352 L 448,352 z M 416,64L 32,64 L 32,384 l 384,0 L 416,64 zM 64,320L 384,320L 384,288L 64,288zM 256,256L 384,256L 384,224L 256,224zM 256,192L 384,192L 384,160L 256,160zM 256,128L 352,128L 352,96L 256,96zM 64,256L 224,256L 224,96L 64,96z"/>
<glyph unicode="" d="M 432,480 C 476.182,480 512,444.183 512,400 C 512,381.99 506.045,365.371 496,352 L 464,320 L 352,432 L 384,464 C 397.371,474.045 413.989,480 432,480 ZM 32,112L0-32l 144,32l 296,296L 328,408L 32,112z M 357.789,298.211l-224-224l-27.578,27.578l 224,224L 357.789,298.211z"/>
<glyph unicode="" d="M 397.042,365.044C 356.341,405.57, 338.388,453.772, 356.943,472.707c 18.556,18.935, 66.592,1.432, 107.293-39.095
	c 0.23-0.229, 0.459-0.458, 0.688-0.688c 40.701-40.526, 58.654-88.729, 40.099-107.663c-18.555-18.935-66.592-1.431-107.293,39.095
	C 397.5,364.585, 397.271,364.814, 397.042,365.044z M 195.896,73.026l 225.637,225.637c 13.607-7.621, 27.189-13.070, 40.16-16.048
	L 224,44.922L0-32l 76.922,224l 237.69,237.691c 1.169-5.179, 2.738-10.47, 4.718-15.841c 2.948-8.001, 6.768-16.154, 11.348-24.302
	l-225.65-225.653l 26.869-26.869l 220.66,220.661c 5.448-6.685, 11.333-13.223, 17.62-19.511c 6.339-6.339, 12.858-12.233, 19.485-17.645
	L 169.027,99.895L 195.896,73.026z"/>
<glyph unicode="" d="M 192,160l 64,32L 480,416l-32,32L 224,224L 192,160z M 144.65,46.451c-15.816,33.364-32.833,50.381-66.198,66.197L 128,249.044
	L 192,288L 384,480l-96,0 L 96,288L0-32l 320,96l 192,192l0,96 L 320,160l-38.956-64"/>
<glyph unicode="" d="M 224,128 L 224,64 L 190.4,49.601 L 81.6,158.4 L 96,192 L 160,192 L 160,128 ZM 67.2,124.8 L 156.8,35.2 L 0-32 ZM 512,336 L 272,96 L 256,96 L 256,128 L 464,336 L 440,360 L 240,160 L 192,160 L 192,208 L 392,408 L 368,432 L 160,224 L 128,224 L 128,240 L 368,480 Z"/>
<glyph unicode="" d="M 424,312 L 208,96 L 128,96 L 128,176 L 344,392 ZM 451,339 L 371,419 L 399.029,447.029 C 408.363,456.363 423.636,456.363 432.97,447.029 L 479.029,400.97 C 488.363,391.636 488.363,376.363 479.029,367.029 L 451,339 ZM 384,198.209L 384,32 L 64,32 L 64,352 l 176,0 l 64,64L 48,416 C 21.6,416,0,394.4,0,368l0-352 c0-26.4, 21.6-48, 48-48l 352,0 c 26.4,0, 48,21.6, 48,48L 448,255.681 
	L 384,198.209z"/>
<glyph unicode="" d="M 320,416L 64,160L0-32L 192,32L 448,288 	zM 512,389.49C 512,439.478, 471.478,480, 421.49,480c-27.789,0-52.648-12.528-69.251-32.239L 352,448l 127.761-127.761
		C 499.473,336.842, 512,361.701, 512,389.49zM 224,0L 512,0L 512-32L 224-32z"/>
<glyph unicode="" d="M0-32C 64,160, 231.5,480, 512,480C 380.5,374.5, 320,128, 224,128s-96,0-96,0L 32-32L0-32 z"/>
<glyph unicode="" d="M0-32l 32,0 l 96,160c0,0,0,0, 96,0S 380.5,374.5, 512,480C 231.5,480, 64,160,0-32z M 196,192l-36,0 c0,0, 88.5,160, 224,224
	C 384,416, 262.5,308.5, 196,192z"/>
<glyph unicode="" d="M 192,186.667c0,0, 101.972,61.18, 159.383,37.013c 11.901,18.134, 23.624,37.668, 35.101,57.611
	C 330.321,295.051, 256,282.667, 256,282.667s 95.106,57.061, 153.333,39.2c 11.675,21.054, 23.027,41.821, 33.978,61.152
	C 396.923,386.153, 352,378.667, 352,378.667s 59.574,35.744, 113.289,41.799C 482.188,447.896, 497.874,469.406, 512,480C 231.5,480, 64,160,0-32
	l 32,0 l 96,160c0,0, 32-32, 128,0c 22.737,7.579, 45.474,28.626, 67.786,56.967C 267.478,199.244, 192,186.667, 192,186.667z"/>
<glyph unicode="" d="M 464.001,287.997L 320.003,431.996L 368.002,479.996L 512.001,335.997zM 304,384 L 416,272 L 352,96 L 64-32 L 43.313-11.313 L 215.716,161.089 C 218.359,160.382 221.134,160 224,160 C 241.673,160 256,174.327 256,192 C 256,209.673 241.673,224 224,224 C 206.327,224 192,209.673 192,192 C 192,189.135 192.382,186.359 193.089,183.715 L 20.687,11.313 L 0,32 L 128,320 L 304,384 Z"/>
<glyph unicode="" d="M 480.002,335.997L 368.003,447.996L 400.003,479.996L 512.002,367.997zM 448,304 L 432,128 C 288,128 80-32 80-32 L 53.435-5.435 L 190.267,131.397 C 195.754,129.213 201.734,128 208,128 C 234.51,128 256,149.49 256,176 C 256,202.51 234.51,224 208,224 C 181.49,224 160,202.51 160,176 C 160,169.734 161.213,163.755 163.397,158.267 L 26.565,21.435 L 0,48 C 0,48 160,256 160,400 L 336,416 L 448,304 Z"/>
<glyph unicode="" d="M 320,416L 336,480L 144,480L 160,416 		zM 320,384L 160,384 L 80,224l 128-256l 16,0 L 224,192 c-17.6,0-32,14.4-32,32l0,32 c0,17.6, 14.4,32, 32,32l 32,0 c 17.6,0, 32-14.4, 32-32l0-32 
			c0-17.6-14.4-32-32-32l0-224 l 16,0 l 128,256L 320,384z"/>
<glyph unicode="" d="M 325.926,401.778L 352,480L 128,480 l 26.074-78.222L 80,224l 128-256l 64,0 l 128,256L 325.926,401.778z M 307.603,448l-10.667-32L 183.064,416 
	l-10.667,32L 307.603,448 z M 256,7.555L 256,194.742 c 18.641,6.591, 32,24.359, 32,45.258c0,26.51-21.49,48-48,48s-48-21.49-48-48
	c0-20.898, 13.359-38.667, 32-45.258l0-187.188 L 115.171,225.211L 181.333,384l 117.333,0 l 66.161-158.789L 256,7.555z"/>
<glyph unicode="" d="M 258.027,349.974c-21.205-20.571-56.098-55.135-63.634-62.679C 135.58,228.488-2.507,64.675, 0.036-31.965
			c 96.64-2.551, 260.449,135.547, 319.263,194.354c 7.544,7.545, 42.108,42.441, 62.673,63.64L 258.027,349.974zM 472.339,377.91l-9.023,9.007L 512,427.139L 459.14,480l-40.222-48.686l-9.018,9.039
			c-27.895,1.631-72.881-25.375-117.215-61.040l 118.63-118.63c 13.414,16.688, 25.524,33.433, 35.421,49.356
			c 9.648-36.481-5.979-102.913-117.835-190.941l 14.233-14.232C 448,180.292, 498.531,268.983, 466.263,348.23
			C 470.452,359.309, 472.834,369.462, 472.339,377.91z"/>
<glyph unicode="" d="M 469.486,437.486C 443.517,463.456, 413.958,480, 385.073,480c-19.763,0-39.211-7.745-56.979-25.514L 80.223,208.224L0,0l 32-32
	l 208.223,80.225l 18.040,18.157l 228.224,229.713C 530.225,339.833, 513.225,393.748, 469.486,437.486z M 240.149,93.553L 125.551,208.15
	L 327.355,408.644l 113.288-113.288L 240.149,93.553z"/>
<glyph unicode="" d="M 256,464L0,208l 48-48l 48,48l0-240 l 128,0 l0,32 l0,64 l 64,0 l0-96 l 128,0 L 416,208 l 48-48l 48,48L 256,464z M 132,0l-4,0 L 128,240 l 4,4L 132,0 z M 148,0l-8,0 L 140,252 
	l 8,8L 148,0 z M 164,0l-8,0 L 156,268 l 8,8L 164,0 z M 180,0l-8,0 L 172,284 l 8,8L 180,0 z M 196,96l-4,0 l0-32 l0-64 l-4,0 L 188,300 l 8,8L 196,96 z M 212,96l-8,0 L 204,316 l 8,8L 212,96 z M 228,96
	l-8,0 L 220,332 l 8,8L 228,96 z M 244,96l-8,0 L 236,348 l 8,8L 244,96 z M 260,96l-8,0 L 252,364 l 4,4l 4-4L 260,96 z M 276,96l-8,0 L 268,356 l 8-8L 276,96 z M 292,96l-8,0 L 284,340 l 8-8L 292,96 z
	 M 308,96l-8,0 L 300,324 l 8-8L 308,96 z M 324,0l-4,0 l0,64 l0,32 l-4,0 L 316,308 l 8-8L 324,0 z M 340,0l-8,0 L 332,292 l 8-8L 340,0 z M 356,0l-8,0 L 348,276 l 8-8L 356,0 z M 372,0l-8,0 L 364,260 
	l 8-8L 372,0 z M 384,0l-4,0 L 380,244 l 4-4L 384,0 z"/>
<glyph unicode="" d="M 228-12L 512-12L 512-4L 236-4 	zM 244,4L 512,4L 512,12L 252,12 	zM 212-28L 512-28L 512-20L 220-20 	zM 292,52L 512,52L 512,60L 300,60 	zM 276,36L 512,36L 512,44L 284,44 	zM 260,20L 512,20L 512,28L 268,28 	zM 469.486,437.486C 443.517,463.456, 413.958,480, 385.073,480c-19.764,0-39.211-7.745-56.979-25.514L 80.223,208.225L0,0l 32-32
	l 208.223,80.225l 18.041,18.157l 228.224,229.713C 530.225,339.833, 513.225,393.748, 469.486,437.486z M 240.149,93.553L 125.551,208.15
	L 327.355,408.644l 113.287-113.288L 240.149,93.553z"/>
<glyph unicode="" d="M 192,384 C 315.712,384 416,283.711 416,160 L 368,160 C 368,207.012 349.693,251.209 316.451,284.451 C 283.209,317.693 239.011,336 192,336 L 192,384 ZM 192,480 C 368.73,480 512,336.73 512,160 L 464,160 C 464,196.74 456.815,232.357 442.645,265.859 C 428.947,298.243 409.328,327.337 384.333,352.333 C 359.337,377.329 330.243,396.948 297.859,410.645 C 264.357,424.815 228.741,432 192,432 L 192,480 ZM 287.195,255.196 C 309.074,233.318 319.993,204.643 319.98,175.971 C 288,127.973 288,64 288,64 C 160,64 64-32 64-32 L 57-25 L 45.435-13.435 L 187.226,128.356 C 188.784,128.123 190.377,128 192,128 C 209.673,128 224,142.327 224,160 C 224,177.673 209.673,192 192,192 C 174.327,192 160,177.673 160,160 C 160,158.377 160.123,156.783 160.356,155.226 L 18.565,13.435 L 0,32 C 0,32 96,128 96,256 C 96,256 159.999,256 207.999,288 C 236.663,288 265.326,277.065 287.195,255.196 Z"/>
<glyph unicode="" d="M 192,384l0-48 c 47.011,0, 91.209-18.307, 124.451-51.549S 368,207.012, 368,160l 48,0 C 416,283.711, 315.712,384, 192,384zM 192,480l0-48 c 36.741,0, 72.357-7.185, 105.859-21.355c 32.384-13.697, 61.478-33.316, 86.474-58.312
			c 24.995-24.996, 44.614-54.090, 58.312-86.474C 456.815,232.357, 464,196.74, 464,160l 48,0 C 512,336.73, 368.73,480, 192,480zM 178.745,237.255L 44.18,102.689l 90.51-90.51l 134.565,134.565c 24.993,24.993, 24.994,65.516,0,90.51
			C 244.261,262.249, 203.738,262.248, 178.745,237.255zM0-32L 106.806-13.675L 18.325,74.806 		z"/>
<glyph unicode="" d="M 160.061,160C 96.036,160, 117.88,46.86,0,21.363c 32.011-21.324, 125.898-39.027, 192.072,10.668
			C 249.298,75.006, 224.085,160, 160.061,160zM 505.965,441.965c-32.009,32.007-110.472-72.027-171.617-107.603c-60.98-37.464-144.033-112.027-96.021-160.037
			c 48.010-48.013, 122.571,35.040, 160.036,96.022C 433.938,331.495, 537.973,409.958, 505.965,441.965z"/>
<glyph unicode="" d="M 257.54,416C 92.994,416,0,306.648,0,226.653c0-121.887, 109.354-190.477, 200.308-212.956
	C 291.27-8.791, 325.48,32.462, 324.022,80c-1.771,57.75, 27.073,58.496, 47.52,56.459C 391.973,134.408, 512,106.695, 512,198.674
	C 512,312.5, 422.072,416, 257.54,416z M 224,384c 17.673,0, 32-14.327, 32-32s-14.327-32-32-32s-32,14.327-32,32S 206.327,384, 224,384z
	 M 80,191.754c-8.973,0-16.246,7.273-16.246,16.246S 71.027,224.246, 80,224.246S 96.246,216.973, 96.246,208S 88.973,191.754, 80,191.754z
	 M 128,256c-17.673,0-32,14.327-32,32s 14.327,32, 32,32s 32-14.327, 32-32S 145.673,256, 128,256z M 256,128c-35.346,0-64,21.49-64,48
	s 28.654,48, 64,48c 35.347,0, 64-21.49, 64-48S 291.347,128, 256,128z M 368,256c-26.51,0-48,21.49-48,48s 21.49,48, 48,48s 48-21.49, 48-48
	S 394.51,256, 368,256z"/>
<glyph unicode="" d="M 256,416C 114.615,416,0,315.712,0,192c0-82.947, 51.529-155.359, 128.101-194.078c 43.186-21.34, 80.116-5.816, 54.146,30.87
	C 168.359,42.667, 160,60.52, 160,80c0,44.183, 42.98,80, 96,80s 96-35.817, 96-80c0-19.48-8.359-37.332-22.246-51.207
	c-25.97-36.685, 10.955-52.209, 54.139-30.874C 460.469,36.637, 512,109.051, 512,192C 512,315.712, 397.385,416, 256,416z M 64,160
	c-17.673,0-32,14.326-32,32s 14.327,32, 32,32s 32-14.326, 32-32S 81.673,160, 64,160z M 128,260.287
	c-22.958-13.255-48.732-11.593-57.569,3.713c-8.836,15.306, 2.611,38.458, 25.569,51.713s 48.732,11.593, 57.569-3.713
	C 162.406,296.694, 150.958,273.542, 128,260.287z M 256,288c-35.346,0-64,21.49-64,48s 28.654,48, 64,48c 35.347,0, 64-21.49, 64-48
	S 291.347,288, 256,288z M 384,260.287c-22.958,13.255-34.406,36.407-25.569,51.713s 34.611,16.968, 57.569,3.713
	s 34.406-36.407, 25.569-51.713S 406.958,247.032, 384,260.287z M 448,160c-17.673,0-32,14.326-32,32s 14.327,32, 32,32s 32-14.326, 32-32
	S 465.673,160, 448,160z"/>
<glyph unicode="" d="M 490.927,458.928 C 561.337,388.518 435.214,345.562 405.506,315.859 C 400.001,310.351 394.697,305.051 389.718,300.068 L 420.037,269.751 C 426.232,263.555 426.232,253.417 420.037,247.222 L 389.762,216.945 C 383.567,210.752 373.428,210.752 367.234,216.945 L 337.070,247.11 L 148.485,58.527 C 116.196,26.234 54.276-1.961 24.237-32 C 15.225-22.988 12.12-19.882 12.12-19.882 C 12.12-19.882 9.012-16.776 0-7.763 C 30.039,22.278 58.235,84.195 90.527,116.489 L 279.115,305.073 L 248.953,335.237 C 242.756,341.432 242.756,351.569 248.953,357.764 L 279.226,388.041 C 285.424,394.238 295.562,394.238 301.756,388.041 L 332.074,357.723 C 337.054,362.705 342.355,368.003 347.862,373.512 C 377.566,403.214 420.519,529.336 490.927,458.928 Z M 133.82,73.193 L 325.621,265.001 L 296.997,293.626 L 105.194,101.819 C 90.361,86.987 75.489,63.665 61.103,41.104 L 61.037,41.001 C 53.163,28.656 45.563,16.739 37.845,5.846 C 48.772,13.59 60.723,21.211 73.102,29.104 C 95.66,43.488 118.986,58.361 133.82,73.193 Z"/>
<glyph unicode="" d="M 384,320l-56,0 c-32,0-8,32-8,96c0,7.555-0.9,13.307-2.474,17.61C 309.875,460.389, 285.236,480, 256,480
	c-29.235,0-53.875-19.611-61.526-46.39C 192.901,429.307, 192,423.555, 192,416c0-64, 24-96-8-96l-56,0 l0-64 l 64,0 l0-248 c0-4.4, 3.6-8, 8-8l 16,0 
	c 4.4,0, 8-3.6, 8-8l0-16 c0-4.4, 3.6-8, 8-8l 48,0 c 4.4,0, 8,3.6, 8,8l0,16 c0,4.4, 3.6,8, 8,8l 16,0 c 4.4,0, 8,3.6, 8,8L 320,256 l 64,0 L 384,320 z M 288,31.196
	c-15.649-3.189-28.007-15.547-31.196-31.196l-1.607,0 c-3.19,15.649-15.547,28.007-31.196,31.196L 224.001,256 l 64,0 L 288.001,31.196 z"/>
<glyph unicode="" d="M 447.97,163.249c-0.006,0.353-0.015,0.701-0.021,1.053c-0.016,0.714-0.035,1.427-0.059,2.14C 442.875,324.266, 256,480, 256,480
		S 69.123,324.266, 64.11,166.439c-0.022-0.715-0.044-1.426-0.060-2.141c-0.007-0.352-0.015-0.701-0.021-1.053
		c-0.018-1.080-0.028-2.162-0.028-3.248c0-1.184, 0.014-2.361, 0.035-3.539c 0.002-0.098, 0.003-0.195, 0.007-0.293
		C 66.082,51.899, 151.241-32, 256-32c 104.758,0, 189.916,83.899, 191.959,188.168c 0.002,0.098, 0.004,0.196, 0.005,0.293
		c 0.021,1.178, 0.036,2.357, 0.036,3.539C 448,161.086, 447.988,162.168, 447.97,163.249z M 383.975,157.63l-0.004-0.203
		c-0.659-33.643-14.266-65.167-38.313-88.774C 321.587,45.017, 289.743,32, 256,32c-6.231,0-12.397,0.447-18.462,1.319
		c 69.528,41.423, 116.108,117.352, 116.108,204.161c0,9.728-0.59,19.317-1.726,28.74c 20.136-36.97, 31.032-71.4, 32.001-101.813
		l 0.002-0.072c 0.016-0.474, 0.026-0.946, 0.039-1.422l 0.014-0.724C 383.99,161.461, 384,160.73, 384,160
		C 384,159.208, 383.99,158.419, 383.975,157.63z"/>
<glyph unicode="" d="M 120.037,164.644 C 120.033,164.73 120.032,164.814 120.031,164.901 C 120.013,165.932 120,166.961 120,167.997 C 120,168.948 120.009,169.894 120.024,170.839 C 120.030,171.149 120.037,171.452 120.043,171.761 C 120.058,172.387 120.076,173.010 120.096,173.635 C 124.481,311.733 287.999,448 287.999,448 C 287.999,448 325.697,416.582 365.377,368.632 L 124.79,128.046 C 121.921,139.81 120.283,152.056 120.037,164.644 ZM 455.954,171.765c-0.015,0.624-0.029,1.247-0.051,1.872c-1.545,48.613-22.809,96.999-49.718,139.293L 510.628,417.373L 486,442
		L 38-6l 24.627-24.628l 93.961,93.962C 187.37,24.737, 234.793,0, 287.999,0c 91.664,0, 166.176,73.411, 167.965,164.646
		c 0.002,0.086, 0.003,0.173, 0.003,0.257c 0.021,1.030, 0.033,2.063, 0.033,3.097c0,0.95-0.011,1.896-0.027,2.843
		C 455.967,171.151, 455.96,171.456, 455.954,171.765z M 399.979,165.927l-0.004-0.178c-0.576-29.438-12.483-57.022-33.523-77.678
		C 345.388,67.39, 317.524,56, 287.999,56c-5.451,0-10.847,0.391-16.154,1.155c 60.839,36.244, 101.596,102.682, 101.596,178.64
		c0,8.511-0.518,16.902-1.512,25.147c 17.619-32.349, 27.154-62.475, 28.002-89.086l 0.002-0.062c 0.015-0.415, 0.021-0.829, 0.033-1.244
		l 0.013-0.634c 0.013-0.638, 0.021-1.277, 0.021-1.916C 400,167.308, 399.991,166.616, 399.979,165.927z"/>
<glyph unicode="" d="M 256,414.672 C 239.761,398.679 218.94,376.741 198.21,350.918 C 143.571,282.861 113.79,218.542 112.087,164.915 C 112.069,164.357 112.052,163.8 112.039,163.238 L 112.031,162.853 L 112.022,162.41 C 112.009,161.607 112.001,160.803 112.001,159.996 C 112.001,159.204 112.010,158.418 112.023,157.631 L 112.024,157.607 L 112.034,157.103 C 112.774,119.259 128.079,83.792 155.129,57.234 C 182.213,30.645 218.037,16 256,16 C 293.963,16 329.785,30.645 356.87,57.236 C 383.917,83.79 399.223,119.255 399.968,157.096 L 399.969,157.169 L 399.972,157.335 C 399.988,158.222 400,159.11 400,160 C 400,160.811 399.99,161.619 399.977,162.427 L 399.97,162.77 L 399.961,163.237 C 399.949,163.756 399.936,164.273 399.918,164.792 L 399.916,164.855 L 399.914,164.918 C 398.21,218.545 368.429,282.864 313.79,350.92 C 293.059,376.741 272.238,398.679 256,414.672 Z M 256,480 L 256,480 C 256,480 442.875,324.266 447.889,166.442 C 447.914,165.729 447.932,165.016 447.949,164.302 C 447.955,163.95 447.964,163.602 447.97,163.249 C 447.988,162.168 448,161.086 448,160 C 448,158.818 447.985,157.639 447.964,156.461 C 447.963,156.364 447.961,156.266 447.959,156.168 C 445.916,51.899 360.758-32 256-32 C 151.241-32 66.082,51.899 64.043,156.164 C 64.039,156.263 64.038,156.358 64.036,156.457 C 64.015,157.636 64.001,158.811 64.001,159.996 C 64.001,161.082 64.011,162.164 64.029,163.244 C 64.035,163.597 64.043,163.944 64.050,164.297 C 64.066,165.013 64.088,165.724 64.11,166.439 C 69.123,324.266 256,480 256,480 ZM 361.981,167.884 C 361.992,167.257 362,166.63 362,166 C 362,165.312 361.99,164.623 361.977,163.897 L 361.974,163.731 L 361.973,163.655 C 361.376,134.259 349.473,106.708 328.452,86.070 C 307.387,65.39 279.525,54 250,54 C 226.519,54 204.094,61.21 185.299,74.561 C 189.5,74.195 193.736,74 198,74 C 235.963,74 271.785,88.645 298.87,115.236 C 325.917,141.79 341.223,177.255 341.968,215.096 L 341.969,215.169 L 341.972,215.335 C 341.988,216.222 342,217.11 342,218 C 342,218.811 341.99,219.619 341.977,220.428 L 341.97,220.771 L 341.961,221.238 C 341.949,221.757 341.936,222.274 341.918,222.793 L 341.916,222.856 L 341.914,222.919 C 341.616,232.3 340.439,242.014 338.44,252.012 C 353.169,222.158 361.149,194.465 361.931,169.847 L 361.935,169.745 L 361.936,169.706 C 361.948,169.325 361.958,168.944 361.967,168.562 L 361.975,168.131 L 361.981,167.884 Z"/>
<glyph unicode="" d="M 256,391.981 C 242.179,377.786 226.216,360.282 210.327,340.454 C 158.108,275.293 129.666,214.417 128.078,164.407 C 128.061,163.877 128.046,163.386 128.035,162.892 L 128.028,162.574 L 128.019,162.132 C 128.008,161.422 128.001,160.711 128.001,159.997 C 128.001,159.342 128.008,158.69 128.019,158.038 L 128.031,157.417 C 128.689,123.783 142.293,92.258 166.338,68.652 C 190.413,45.017 222.255,32 256,32 C 289.744,32 321.587,45.017 345.661,68.652 C 369.697,92.25 383.301,123.756 383.971,157.376 L 383.971,157.4 L 383.975,157.618 C 383.988,158.411 384,159.205 384,160 C 384,160.716 383.991,161.43 383.98,162.144 L 383.979,162.184 L 383.978,162.224 L 383.973,162.455 L 383.965,162.902 C 383.954,163.354 383.943,163.805 383.927,164.257 L 383.925,164.333 L 383.922,164.409 C 382.333,214.418 353.892,275.294 301.673,340.454 C 285.783,360.282 269.82,377.785 256,391.981 Z M 256,480 L 256,480 C 256,480 442.875,324.266 447.889,166.442 C 447.914,165.729 447.932,165.016 447.949,164.302 C 447.955,163.95 447.964,163.602 447.97,163.249 C 447.988,162.168 448,161.086 448,160 C 448,158.818 447.985,157.639 447.964,156.461 C 447.963,156.364 447.961,156.266 447.959,156.168 C 445.916,51.899 360.758-32 256-32 C 151.241-32 66.082,51.899 64.043,156.164 C 64.039,156.263 64.038,156.358 64.036,156.457 C 64.015,157.636 64.001,158.811 64.001,159.996 C 64.001,161.082 64.011,162.164 64.029,163.244 C 64.035,163.597 64.043,163.944 64.050,164.297 C 64.066,165.013 64.088,165.724 64.11,166.439 C 69.123,324.266 256,480 256,480 Z"/>
<glyph unicode="" d="M 416,384L 416,416 c0,17.6-14.4,32-32,32L 32,448 C 14.4,448,0,433.6,0,416l0-96 c0-17.6, 14.4-32, 32-32l 352,0 c 17.6,0, 32,14.4, 32,32l0,32 l 64,0 l0-128 L 192,224 
	l0-64 l-16,0 c-8.837,0-16-7.163-16-16l0-160 c0-8.837, 7.163-16, 16-16l 64,0 c 8.837,0, 16,7.163, 16,16L 256,144 c0,8.837-7.163,16-16,16l-16,0 l0,32 l 288,0 L 512,384 
	L 416,384 z M 35,384l-3,0 L 32,416 l 3,0 L 35,384 z M 51,384l-8,0 L 43,416 l 8,0 L 51,384 z M 67,384l-8,0 L 59,416 l 8,0 L 67,384 z M 83,384l-8,0 L 75,416 l 8,0 L 83,384 z M 99,384l-8,0 L 91,416 l 8,0 L 99,384 z M 115,384l-8,0 L 107,416 l 8,0 L 115,384 z
	 M 131,384l-8,0 L 123,416 l 8,0 L 131,384 z M 147,384l-8,0 L 139,416 l 8,0 L 147,384 z M 163,384l-8,0 L 155,416 l 8,0 L 163,384 z M 179,384l-8,0 L 171,416 l 8,0 L 179,384 z M 195,384l-8,0 L 187,416 l 8,0 L 195,384 z M 211,384l-8,0 L 203,416 l 8,0 L 211,384 z
	 M 227,384l-8,0 L 219,416 l 8,0 L 227,384 z M 243,384l-8,0 L 235,416 l 8,0 L 243,384 z M 259,384l-8,0 L 251,416 l 8,0 L 259,384 z M 275,384l-8,0 L 267,416 l 8,0 L 275,384 z M 291,384l-8,0 L 283,416 l 8,0 L 291,384 z M 307,384l-8,0 L 299,416 l 8,0 L 307,384 z
	 M 323,384l-8,0 L 315,416 l 8,0 L 323,384 z M 339,384l-8,0 L 331,416 l 8,0 L 339,384 z M 355,384l-8,0 L 347,416 l 8,0 L 355,384 z M 371,384l-8,0 L 363,416 l 8,0 L 371,384 z M 384,384l-5,0 L 379,416 l 5,0 L 384,384 z"/>
<glyph unicode="" d="M 512,192L 512,384 l-96,0 L 416,416 c0,17.6-14.4,32-32,32L 32,448 C 14.4,448,0,433.6,0,416l0-96 c0-17.6, 14.4-32, 32-32l 352,0 c 17.6,0, 32,14.4, 32,32l0,32 l 64,0 
	l0-128 L 192,224 l0-64 l-16,0 c-8.837,0-16-7.163-16-16l0-160 c0-8.837, 7.163-16, 16-16l 64,0 c 8.837,0, 16,7.163, 16,16L 256,144 c0,8.837-7.163,16-16,16l-16,0 l0,32 
	L 512,192 z M 384,384L 32,384 L 32,416 l 352,0 L 384,384 z"/>
<glyph unicode="" d="M 448,384 L 64,384 L 64,64 L 448,64 L 448,384 Z M 512,448 L 512,448 L 512,0 L 0,0 L 0,448 L 512,448 ZM 416,96 L 96,96 L 96,160 L 192,320 L 323.5,160 L 416,224 L 416,192 ZM 320,304A48,48 2700 1 0 416,304A48,48 2700 1 0 320,304z"/>
<glyph unicode="" d="M0,416l0-416 l 512,0 L 512,416 L0,416 z M 480,32L 32,32 L 32,384 l 448,0 L 480,32 zM 352,304A48,48 2700 1 0 448,304A48,48 2700 1 0 352,304zM 448,64 L 64,64 L 160,320 L 288,160 L 352,208 Z"/>
<glyph unicode="" d="M0,416l0-384 l 512,0 L 512,416 L0,416 z M 480,64l-32,0 l-96,144l-64-48L 160,320L 64,64L 32,64 L 32,384 l 448,0 L 480,64 zM 352,304A48,48 12780 1 0 448,304A48,48 12780 1 0 352,304z"/>
<glyph unicode="" d="M 64,352l0-320 l 448,0 L 512,352 L 64,352 z M 480,85.333L 416,192l-72.533-60.444L 288,224L 96,64L 96,320 l 384,0 L 480,85.333 zM 128,240A48,48 7740 1 0 224,240A48,48 7740 1 0 128,240zM 448,416L0,416L0,96L 32,96L 32,384L 448,384 	z"/>
<glyph unicode="" d="M 416,192.113c-32,0-64-32.113-96-32.113s-32,128-96,128S 96,224, 64,96c0,0, 352,0, 384,0
		C 448,95.999, 448,192.113, 416,192.113zM0,384l0-352 l 512,0 L 512,384 L0,384 z M 480,64L 32,64 L 32,352 l 448,0 L 480,64 zM 352,272A48,48 12780 1 0 448,272A48,48 12780 1 0 352,272z"/>
<glyph unicode="" d="M0,384l0-320 l 512,0 L 512,384 L0,384 z M 480,160l-96,96l-45.898-68.847L 429.255,96L 384,96 L 224,256L 32,96L 32,352 l 448,0 L 480,160 zM 64,272A48,48 10980 1 0 160,272A48,48 10980 1 0 64,272z"/>
<glyph unicode="" d="M0,448l0-480 l 512,0 L 512,448 L0,448 z M 448,96L 64,96 L 64,384 l 384,0 L 448,96 zM 416,192L 384,256L 320,192L 224,352L 96,160L 96,128L 416,128 	z"/>
<glyph unicode="" d="M 384,448L0,448 l0-384 l 384,0 L 384,448 z M 352,160L 32,160 L 32,416 l 320,0 L 352,160 zM 256,320L 233.143,274.286L 160,384L 64,192L 320,192 	zM 416,356.623L 416,32L 60.472,32L 57.964,8.139L 439.861-32L 480,349.896 	z"/>
<glyph unicode="" d="M0,448l0-448 l 512,0 L 512,448 L0,448 z M 480,416l0-325.154 L 354.059,237.778c-8.806,10.272-21.219,16.164-34.059,16.164
		s-25.253-5.892-34.059-16.164L 136.99,64L 43.529,64 l 72.914,91.143c 3.271,4.090, 7.376,6.342, 11.557,6.342s 8.286-2.252, 11.557-6.342
		l 15.867-19.834l 18.295,21.954l-12.297,15.372c-8.567,10.708-20.749,16.85-33.421,16.85s-24.854-6.142-33.421-16.85L 32,94.411L 32,416 
		L 480,416 z M 466.132,64L 173.868,64 l 133.333,155.556c 3.529,4.118, 8.075,6.386, 12.799,6.386s 9.27-2.268, 12.799-6.386L 466.132,64zM 144,356c 28.673,0, 52-23.327, 52-52s-23.327-52-52-52s-52,23.327-52,52S 115.327,356, 144,356 M 144,384
		c-44.183,0-80-35.817-80-80s 35.817-80, 80-80s 80,35.817, 80,80S 188.183,384, 144,384L 144,384z"/>
<glyph unicode="" d="M 256,264 C 302.869,264 341,224.523 341,176 C 341,127.477 302.869,88 256,88 C 209.131,88 171,127.477 171,176 C 171,224.523 209.131,264 256,264 ZM 480,384l-96,0 l-16.179,40.717C 364.619,437.522, 351.2,448, 338,448L 174,448 c-13.2,0-26.619-10.478-29.821-23.283L 128,384L 32,384 
		c-17.6,0-32-14.4-32-32l0-352 c0-17.6, 14.4-32, 32-32l 448,0 c 17.6,0, 32,14.4, 32,32L 512,352 C 512,369.6, 497.6,384, 480,384z M 256,40
		c-73.336,0-133,61.010-133,136c0,74.991, 59.664,136, 133,136c 73.337,0, 133-61.009, 133-136C 389,101.010, 329.337,40, 256,40z"/>
<glyph unicode="" d="M 480,384l-96,0 l-16.179,40.717C 364.619,437.522, 351.2,448, 338,448L 174,448 c-13.2,0-26.619-10.478-29.821-23.283L 128,384L 32,384 
	c-17.6,0-32-14.4-32-32l0-352 c0-17.6, 14.4-32, 32-32l 448,0 c 17.6,0, 32,14.4, 32,32L 512,352 C 512,369.6, 497.6,384, 480,384z M 448,32L 64,32 L 64,320 l 107.437,0 
	l 25.431,64l 118.265,0 l 25.431-64L 448,320 L 448,32 zM 256,296c-66.168,0-120-53.832-120-120s 53.832-120, 120-120s 120,53.832, 120,120S 322.168,296, 256,296z M 256,104
	c-39.701,0-72,32.299-72,72s 32.299,72, 72,72s 72-32.299, 72-72S 295.701,104, 256,104z"/>
<glyph unicode="" d="M 152,176c0-57.438, 46.562-104, 104-104s 104,46.562, 104,104s-46.562,104-104,104S 152,233.438, 152,176z M 480,352L 368,352 
	c-8,32-16,64-48,64L 192,416 c-32,0-40-32-48-64L 32,352 c-17.6,0-32-14.4-32-32l0-288 c0-17.6, 14.4-32, 32-32l 448,0 c 17.6,0, 32,14.4, 32,32L 512,320 
	C 512,337.6, 497.6,352, 480,352z M 256,34c-78.425,0-142,63.574-142,142c0,78.425, 63.575,142, 142,142c 78.426,0, 142-63.575, 142-142
	C 398,97.574, 334.427,34, 256,34z M 480,256l-64,0 l0,32 l 64,0 L 480,256 z"/>
<glyph unicode="" d="M 416,448L 96,448 c-35.2,0-64-28.8-64-64l0-320 c0-35.2, 28.8-64, 64-64l 320,0 c 35.2,0, 64,28.8, 64,64L 480,384 C 480,419.2, 451.2,448, 416,448z
	 M 336,192c0-44.112-35.888-80-80-80s-80,35.888-80,80c0,26.142, 12.605,49.393, 32.056,64l 95.889,0 C 323.395,241.393, 336,218.142, 336,192
	z M 160,384l 32,0 l0-64 l-32,0 L 160,384 z M 96,384l 32,0 l0-64 L 96,320 L 96,384 z M 416,64.114c-0.033-0.039-0.075-0.081-0.114-0.114L 256,64 L 96.114,64 
	c-0.040,0.033-0.081,0.075-0.114,0.114L 96,256 l 49.128,0 C 134.237,237.172, 128,215.315, 128,192c0-70.692, 57.308-128, 128-128
	s 128,57.308, 128,128c0,23.315-6.236,45.172-17.128,64L 416,256 L 416,64.114 z"/>
<glyph unicode="" d="M 406.079,332.794c-43.525,61.105-39.44,17.957-81.604,139.842L 279.886,480l-49.609-366.475
	c-111.816,63.979-182.336-1.734-164.492-84.443c 9.46-43.856, 80.716-85.137, 150.9-44.39c 33.171,19.945, 43.836,52.11, 48.070,74.919
	l 35.438,271.926c 126.445-111.487, 86.071-178.946, 59.925-256.622C 413.867,97.082, 498.058,194.859, 406.079,332.794z"/>
<glyph unicode="" d="M 160,384l0-263.703 c-14.549,4.937-30.821,7.703-48,7.703C 50.144,128,0,92.183,0,48s 50.144-80, 112-80s 112,35.817, 112,80
	L 224,199.578 l 224,61.091l0-76.372 c-14.549,4.937-30.821,7.703-48,7.703c-61.855,0-112-35.817-112-80s 50.145-80, 112-80s 112,35.817, 112,80L 512,480 
	L 160,384z M 224,249.331L 224,298 l 224,61.091l0-48.669 L 224,249.331z"/>
<glyph unicode="" d="M 160,384 L 512,480 L 512,448 L 512,384 L 512,112 C 512,67.817 461.855,32 400,32 C 338.145,32 288,67.817 288,112 C 288,156.183 338.145,192 400,192 C 417.179,192 433.451,189.234 448,184.297 L 448,349.091 L 224,288 L 224,48 C 224,3.817 173.856-32 112-32 C 50.144-32 0,3.817 0,48 C 0,92.183 50.144,128 112,128 C 129.179,128 145.451,125.234 160,120.297 L 160,288 L 160,384 Z"/>
<glyph unicode="" d="M 480,480L 192,416l0-312.020 C 171.671,118.8, 143.342,128, 112,128C 50.144,128,0,92.184,0,48c0-44.183, 50.144-80, 112-80
	s 112,35.817, 112,80L 224,254.708 l 256,56.889L 480,167.98 C 459.671,182.8, 431.342,192, 400,192c-61.855,0-112-35.816-112-80
	c0-44.183, 50.145-80, 112-80s 112,35.817, 112,80L 512,480 L 480,480 z M 480,352.574l-256-56.889l0,63.426 L 480,416L 480,352.574 z"/>
<glyph unicode="" d="M 480,480 L 512,480 L 512,112 C 512,67.817 461.855,32 400,32 C 338.145,32 288,67.817 288,112 C 288,156.184 338.145,192 400,192 C 431.342,192 459.671,182.8 480,167.98 L 480,352 L 224,295.111 L 224,48 C 224,3.817 173.856-32 112-32 C 50.144-32 0,3.817 0,48 C 0,92.184 50.144,128 112,128 C 143.342,128 171.671,118.8 192,103.98 L 192,416 L 480,480 Z"/>
<glyph unicode="" d="M 480,480L 192,416l0-312.020 C 171.671,118.8, 143.342,128, 112,128C 50.144,128,0,92.184,0,48c0-44.183, 50.144-80, 112-80
	s 112,35.817, 112,80L 224,254.708 l 256,56.889L 480,167.98 C 459.671,182.8, 431.342,192, 400,192c-61.855,0-112-35.816-112-80
	c0-44.183, 50.145-80, 112-80s 112,35.817, 112,80L 512,480 L 480,480 z M 112,6c-42.353,0-74,22.174-74,42s 31.647,42, 74,42s 74-22.174, 74-42
	S 154.353,6, 112,6z M 400,70c-42.354,0-74,22.174-74,42s 31.646,42, 74,42s 74-22.174, 74-42S 442.354,70, 400,70z M 480,352.574
	l-256-56.889l0,63.426 L 480,416L 480,352.574 z"/>
<glyph unicode="" d="M0,480l0-512 l 480,0 L 480,480 L0,480 z M 96,0L 32,0 L 32,448 l 32,0 l0-320 l 32,0 L 96,0 z M 224.001,0l-96,0 L 128.001,128 l 32,0 L 160.001,448 l 32,0 l0-320 l 32,0 L 224.001,0 z M 352,0l-96,0 L 256,128 l 32,0 L 288,448 l 32,0 l0-320 
	l 32,0 L 352,0 z M 448,0l-64,0 L 384,128 l 32,0 L 416,448 l 32,0 L 448,0 z"/>
<glyph unicode="" d="M 440,352l 72,64c-6.038,32.334-31.666,57.962-64,64l-64-72l0-17.109 l-90.735-90.735
	c-47.034,38.417-79.561,33.168-100.675,15.795c-20.49-16.855-28.145-50.262-39.481-60.243
	c-22.896-20.152-79.232,0.076-127.196-52.117C-29.588,143.193, 14.208,78.8, 62.504,30.504
	c 48.295-48.294, 112.689-92.092, 173.087-36.592c 52.194,47.964, 31.954,104.312, 52.105,127.207c 9.98,11.337, 43.398,18.979, 60.255,39.47
	c 17.371,21.114, 22.62,53.642-15.796,100.676L 422.891,352L 440,352 z M 146.565,50.565l-64,64l 26.87,26.869l 64-64L 146.565,50.565z
	 M 240,160c-26.51,0-48,21.49-48,48s 21.49,48, 48,48s 48-21.49, 48-48S 266.51,160, 240,160z"/>
<glyph unicode="" d="M 96,190.857l0-221.715 c 5.227-0.748, 10.567-1.143, 16-1.143l 16,0 L 128,192 l-16,0 C 106.567,192, 101.227,191.605, 96,190.857zM 384,192l0-224 l 16,0 c 5.434,0, 10.773,0.395, 16,1.143L 416,190.857 c-5.227,0.748-10.566,1.143-16,1.143L 384,192 zM 512,224C 512,365.385, 397.385,480, 256,480S0,365.385,0,224c0-30.709, 5.414-60.153, 15.328-87.437C 5.592,119.962,0,100.637,0,80
		c0-44.677, 26.163-83.239, 64-101.216L 64,181.216 c-10.063-4.781-19.29-11.030-27.429-18.452C 33.575,177.374, 32,192.503, 32,208
		C 32,331.712, 132.288,432, 256,432s 224-100.288, 224-224c0-15.497-1.574-30.626-4.571-45.236c-8.14,7.422-17.365,13.671-27.429,18.452
		l0-202.432 c 37.838,17.977, 64,56.539, 64,101.216c0,20.637-5.592,39.962-15.328,56.563C 506.586,163.847, 512,193.291, 512,224z"/>
<glyph unicode="" d="M 256.001,416C 132.288,416, 32,315.712, 32,192l0-96 l 32,0 l0,96 c0,106.039, 85.961,160, 192,160s 192-53.961, 192-160l0-96 l 32,0 l0,96 
		C 480.001,315.712, 379.712,416, 256.001,416zM 138.667,192l-21.333,0 C 105.6,192, 96,182.4, 96,170.667l0-117.334 C 96,41.601, 105.6,32, 117.333,32l 21.333,0 
		C 150.4,32, 160,41.601, 160,53.333L 160,170.667 C 160,182.4, 150.4,192, 138.667,192zM 394.666,192l-21.334,0 c-11.731,0-21.331-9.6-21.331-21.333l0-117.334 c0-11.732, 9.6-21.333, 21.331-21.333l 21.334,0 
		C 406.4,32, 416,41.601, 416,53.333L 416,170.667 C 416.001,182.4, 406.401,192, 394.666,192z"/>
<glyph unicode="" d="M 490.594,399.946C 418.778,410.271, 339.428,416, 256.001,416c-83.43,0-162.778-5.729-234.597-16.054
	C 7.639,346.083,0,286.571,0,224c0-62.57, 7.639-122.083, 21.404-175.945C 93.223,37.729, 172.572,32, 256.001,32
	c 83.427,0, 162.776,5.729, 234.593,16.055C 504.36,101.917, 512,161.43, 512,224C 512,286.571, 504.36,346.083, 490.594,399.946z
	 M 192.001,128L 192.001,320 l 160-96L 192.001,128z"/>
<glyph unicode="" d="M 192,331.075L 192,180.925L 322.033,255.996 	zM0,384l0-320 l 512,0 L 512,384 L0,384 z M 480,96L 32,96 l0,32 l 448,0 L 480,96 z M 480,160L 32,160 L 32,352 l 448,0 L 480,160 z"/>
<glyph unicode="" d="M 39.151,348.73L 471.873,464.672L 496.718,371.946L 63.996,256.004zM 64,256l0-288 l 448,0 L 512,256 L 64,256 z M 224,32L 224,192 l 128-80L 224,32z"/>
<glyph unicode="" d="M 32,256l0-288 l 480,0 L 512,256 L 32,256 z M 480,160L 64,160 l0,32 l 416,0 L 480,160 zM 14.628,414.857L 32,288.041l 475.559,65.144L 490.188,480L 14.628,414.857z M 184.497,341.229l-89.771-12.297l 54.722,72.094
	l 89.771,12.297L 184.497,341.229z M 369.767,366.608l-89.771-12.297l 54.722,72.094l 89.771,12.297L 369.767,366.608z"/>
<glyph unicode="" d="M 256,480C 114.615,480,0,365.385,0,224s 114.615-256, 256-256s 256,114.615, 256,256S 397.385,480, 256,480z M 256,423.191
	c 30.187,0, 54.658-24.471, 54.658-54.659c0-30.187-24.472-54.658-54.658-54.658c-30.188,0-54.658,24.471-54.658,54.658
	C 201.342,398.72, 225.812,423.191, 256,423.191z M 57.778,272.636c0,30.187, 24.471,54.658, 54.659,54.658
	c 30.187,0, 54.658-24.471, 54.658-54.658c0-30.188-24.471-54.659-54.658-54.659C 82.25,217.978, 57.778,242.449, 57.778,272.636z
	 M 169.201,57.356c-30.187,0-54.658,24.471-54.658,54.658s 24.472,54.659, 54.658,54.659c 30.187,0, 54.659-24.472, 54.659-54.659
	S 199.388,57.356, 169.201,57.356z M 256,192c-17.673,0-32,14.327-32,32c0,17.673, 14.327,32, 32,32c 17.673,0, 32-14.327, 32-32
	C 288,206.327, 273.673,192, 256,192z M 342.799,57.031c-30.188,0-54.658,24.471-54.658,54.658s 24.471,54.659, 54.658,54.659
	c 30.187,0, 54.658-24.472, 54.658-54.659S 372.985,57.031, 342.799,57.031z M 399.562,217.652c-30.187,0-54.658,24.471-54.658,54.659
	c0,30.187, 24.472,54.658, 54.658,54.658c 30.188,0, 54.659-24.471, 54.659-54.658C 454.222,242.124, 429.751,217.652, 399.562,217.652z"/>
<glyph unicode="" d="M0,480l0-512 l 512,0 L 512,480 L0,480 z M 320,448l 64,0 l0-64 l-64,0 L 320,448 z M 224,448l 64,0 l0-64 l-64,0 L 224,448 z M 128,448l 64,0 l0-64 l-64,0 L 128,448 z M 32,448l 64,0 l0-64 L 32,384 L 32,448 z M 32,352l 192,0 l0-256 
	L 32,96 L 32,352 z M 96,0L 32,0 l0,64 l 64,0 L 96,0 z M 192,0l-64,0 l0,64 l 64,0 L 192,0 z M 288,0l-64,0 l0,64 l 64,0 L 288,0 z M 384,0l-64,0 l0,64 l 64,0 L 384,0 z M 480,0l-64,0 l0,64 l 64,0 
	L 480,0 z M 480,96L 256,96 L 256,352 l 224,0 L 480,96 z M 480,384l-64,0 L 416,448 l 64,0 L 480,384 z"/>
<glyph unicode="" d="M0,448l0-448 l 512,0 L 512,448 L0,448 z M 96,32L 32,32 l0,64 l 64,0 L 96,32 z M 96,128L 32,128 l0,64 l 64,0 L 96,128 z M 96,256L 32,256 l0,64 l 64,0 L 96,256 z M 96,352L 32,352 L 32,416 l 64,0 L 96,352 z M 384,32
	L 128,32 l0,64 l0,32 l0,64 l 256,0 L 384,32 z M 384,256L 128,256 L 128,416 l 256,0 L 384,256 z M 480,32l-64,0 l0,64 l 64,0 L 480,32 z M 480,128l-64,0 l0,64 l 64,0 L 480,128 z M 480,256l-64,0 l0,64 l 64,0 L 480,256 z
	 M 480,352l-64,0 L 416,416 l 64,0 L 480,352 z"/>
<glyph unicode="" d="M0,416l0-384 l 512,0 L 512,416 L0,416 z M 96,64L 32,64 l0,64 l 64,0 L 96,64 z M 96,192L 32,192 l0,64 l 64,0 L 96,192 z M 96,320L 32,320 L 32,384 l 64,0 L 96,320 z M 384,64L 128,64 L 128,384 l 256,0 L 384,64 z
	 M 480,64l-64,0 l0,64 l 64,0 L 480,64 z M 480,192l-64,0 l0,64 l 64,0 L 480,192 z M 480,320l-64,0 L 416,384 l 64,0 L 480,320 z"/>
<glyph unicode="" d="M0,416l0-384 l 512,0 L 512,416 L0,416 z M 96,64L 32,64 l0,64 l 64,0 L 96,64 z M 96,192L 32,192 l0,64 l 64,0 L 96,192 z M 96,320L 32,320 L 32,384 l 64,0 L 96,320 z M 384,64L 128,64 L 128,384 l 256,0 L 384,64 z
		 M 480,64l-64,0 l0,64 l 64,0 L 480,64 z M 480,192l-64,0 l0,64 l 64,0 L 480,192 z M 480,320l-64,0 L 416,384 l 64,0 L 480,320 zM 192,320L 192,128L 320,224 	z"/>
<glyph unicode="" d="M 192,336A80,80 10980 1 0 352,336A80,80 10980 1 0 192,336zM0,336A80,80 10980 1 0 160,336A80,80 10980 1 0 0,336zM 384,176l0,48 c0,17.6-14.4,32-32,32l-80,0 L 80,256 L 32,256 c-17.6,0-32-14.4-32-32l0-160 c0-17.6, 14.4-32, 32-32l 320,0 c 17.6,0, 32,14.4, 32,32
		l0,48 l 128-80L 512,256 L 384,176z M 320,96L 64,96 l0,96 l 256,0 L 320,96 z"/>
<glyph unicode="" d="M 489.42,351.874c-5.294,0-10.729-1.861-15.718-5.383L 384,283.184L 384,336 c0,26.4-21.6,48-48,48L 48,384 c-26.4,0-48-21.6-48-48l0-224 
	c0-26.4, 21.6-48, 48-48l 288,0 c 26.4,0, 48,21.6, 48,48l0,52.815 l 89.701-63.307c 4.989-3.521, 10.424-5.382, 15.717-5.383
	c 0.001,0, 0.001,0, 0.003,0c 7.044,0, 13.477,3.248, 17.646,8.911c 3.228,4.385, 4.934,10.027, 4.934,16.318L 512.001,326.645 
	C 512,343.208, 500.641,351.874, 489.42,351.874z"/>
<glyph unicode="" d="M 489.42,351.874c-5.294,0-10.729-1.861-15.718-5.383L 384,283.184L 384,336 c0,26.4-21.6,48-48,48L 48,384 c-26.4,0-48-21.6-48-48l0-224 
	c0-26.4, 21.6-48, 48-48l 288,0 c 26.4,0, 48,21.6, 48,48l0,52.815 l 89.701-63.307c 4.989-3.521, 10.424-5.382, 15.717-5.383
	c 0.001,0, 0.001,0, 0.003,0c 7.044,0, 13.477,3.248, 17.646,8.911c 3.228,4.385, 4.934,10.027, 4.934,16.318L 512.001,326.645 
	C 512,343.208, 500.641,351.874, 489.42,351.874z M 480,136.23L 400.979,192L 352,192 l0-80 c0-8.673-7.327-16-16-16L 48,96 c-8.673,0-16,7.327-16,16
	L 32,336 c0,8.673, 7.327,16, 16,16l 288,0 c 8.673,0, 16-7.327, 16-16l0-80 l 48.979,0 L 480,311.77L 480,136.23 z"/>
<glyph unicode="" d="M 352,112c0-26.4-21.6-48-48-48L 80,64 c-26.4,0-48,21.6-48,48L 32,304 c0,26.4, 21.6,48, 48,48l 224,0 c 26.4,0, 48-21.6, 48-48L 352,112 zM 480,320 L 480,96 C 480,69.6 464.727,63.273 446.059,81.942 L 353.942,174.059 C 335.274,192.727 335.274,223.274 353.942,241.941 L 446.059,334.059 C 464.727,352.727 480,346.4 480,320 Z"/>
<glyph unicode="" d="M 291.571,64l-199,0 C 59.172,64, 32,90.317, 32,122.666L 32,293.333 C 32,325.682, 59.172,352, 92.571,352l 199,0 
		c 33.399,0, 60.571-26.318, 60.571-58.667l0-21.7 l 69.58,60.266c 9.591,9.084, 19.306,13.69, 28.881,13.69
		c 13.561,0, 29.396-9.961, 29.396-38.033l0-199.111 c0-10.083-2.061-18.469-6.124-24.924c-5.244-8.331-13.727-13.109-23.271-13.109
		c-0.001,0-0.001,0-0.003,0c-9.574,0.001-19.287,4.605-28.877,13.688l-69.582,60.267l0-21.699 
		C 352.143,90.317, 324.971,64, 291.571,64z M 92.571,320C 76.817,320, 64,308.037, 64,293.333l0-170.667 
		C 64,107.962, 76.817,96, 92.571,96l 199,0 c 15.754,0, 28.571,11.962, 28.571,26.666l0,57.005 c0,6.58, 4.028,12.489, 10.153,14.894
		c 6.124,2.402, 13.098,0.814, 17.573-4.008c 0.328-0.354, 0.625-0.663, 0.902-0.938l 94.188-81.577c 0.2-0.175, 0.396-0.354, 0.589-0.537
		c 1.623-1.554, 3.029-2.668, 4.174-3.453c 0.163,1.159, 0.278,2.615, 0.278,4.393L 447.999,307.556 c0,1.777-0.115,3.233-0.278,4.392
		c-1.145-0.784-2.551-1.899-4.174-3.453c-0.192-0.184-0.389-0.362-0.589-0.536l-94.19-81.581c-0.273-0.271-0.573-0.582-0.908-0.942
		c-4.479-4.817-11.445-6.404-17.571-3.996c-6.121,2.406-10.146,8.313-10.146,14.891l0,57.004 c0,14.704-12.817,26.667-28.571,26.667
		L 92.571,320.002 z"/>
<glyph unicode="" d="M 432,384L 176,384 c-44,0-80-36-80-80l0-256 c0-44, 36-80, 80-80l 256,0 c 44,0, 80,36, 80,80L 512,304 C 512,348, 476,384, 432,384z M 208,32
	c-26.51,0-48,21.49-48,48s 21.49,48, 48,48s 48-21.49, 48-48S 234.51,32, 208,32z M 208,224c-26.51,0-48,21.49-48,48s 21.49,48, 48,48
	s 48-21.49, 48-48S 234.51,224, 208,224z M 304,128c-26.51,0-48,21.49-48,48s 21.49,48, 48,48s 48-21.49, 48-48S 330.51,128, 304,128z M 400,32
	c-26.51,0-48,21.49-48,48s 21.49,48, 48,48s 48-21.49, 48-48S 426.51,32, 400,32z M 400,224c-26.51,0-48,21.49-48,48s 21.49,48, 48,48
	s 48-21.49, 48-48S 426.51,224, 400,224z M 414.38,416C 406.915,452.402, 374.525,480, 336,480L 80,480 C 36,480,0,444,0,400l0-256 
	c0-38.523, 27.598-70.915, 64-78.38L 64,384 c0,17.6, 14.4,32, 32,32L 414.38,416 z"/>
<glyph unicode="" d="M 160,320L 128,320L 128,288L 96,288L 96,256L 128,256L 128,224L 160,224L 160,256L 192,256L 192,288L 160,288 	zM 320,296A24,24 12780 1 0 368,296A24,24 12780 1 0 320,296zM 368,248A24,24 12780 1 0 416,248A24,24 12780 1 0 368,248zM 369.736,394.074c-58.11,0-67.181-34.417-113.735-34.421c-46.555,0.004-55.625,34.421-113.735,34.421
		C 48.53,394.074,0,279.337,0,197.261c0-77.651, 7.296-134.155, 36.344-142.085c 29.063-7.958, 66.085,23.379, 102.175,57.36
		c 36.081,33.981, 42.174,31.771, 71.229,31.771L 256,143.285l 46.252,1.021c 29.056,0, 35.148,2.211, 71.229-31.771
		c 36.090-33.981, 73.111-65.318, 102.175-57.36C 504.704,63.105, 512,119.609, 512,197.261C 512,279.337, 463.471,394.074, 369.736,394.074z
		 M 144,192c-44.183,0-80,35.817-80,80s 35.817,80, 80,80s 80-35.817, 80-80S 188.183,192, 144,192z M 368,192c-44.183,0-80,35.817-80,80
		s 35.817,80, 80,80s 80-35.817, 80-80S 412.183,192, 368,192z"/>
<glyph unicode="" d="M 475.931,322.066c-12.993,21.217-28.493,38.025-46.064,49.957C 409.825,385.63, 387.61,392.53, 363.839,392.53
		c-32.558,0-50.831-10.297-66.954-19.382c-13.141-7.404-23.52-13.253-40.882-13.255c-17.366,0.001-27.746,5.851-40.887,13.255
		c-16.122,9.084-34.395,19.381-66.952,19.381c-23.772,0-45.987-6.899-66.027-20.506c-17.574-11.932-33.072-28.74-46.066-49.957
		C 13.484,285.186,0,236.805,0,192.646c0-42.424, 2.291-72.609, 7.21-94.996c 6.673-30.364, 18.785-47.547, 37.017-52.523
		c 4.014-1.1, 8.24-1.656, 12.562-1.656c 31.438,0, 65.118,29.235, 96.922,59.182c 28.18,26.541, 33.171,26.541, 49.708,26.541
		c 1.258,0, 2.563-0.006, 3.925-0.014c 1.483-0.008, 3.031-0.015, 4.653-0.015L 256,128.191l 44.002,0.974c 1.622,0, 3.169,0.007, 4.652,0.015
		c 1.361,0.008, 2.669,0.014, 3.926,0.014c 16.537,0, 21.529,0, 49.71-26.541c 31.803-29.946, 65.482-59.182, 96.92-59.183
		c 0.001,0, 0.001,0, 0.002,0c 4.32,0, 8.547,0.558, 12.551,1.653c 18.243,4.979, 30.354,22.162, 37.026,52.525
		c 4.919,22.389, 7.211,52.574, 7.211,94.998C 512,236.805, 498.516,285.186, 475.931,322.066z M 473.534,104.517
		c-3.554-16.173-8.993-27.103-14.218-28.528c-1.257-0.344-2.638-0.519-4.105-0.519c-21.375,0.001-57.583,34.095-74.981,50.478
		c-17.039,16.048-27.119,23.831-37.192,28.719c-13.453,6.527-24.612,6.527-34.457,6.527c-1.314,0-2.683-0.006-4.096-0.014
		c-1.429-0.008-2.92-0.015-4.482-0.015l-0.354,0 l-0.354-0.008L 256,160.199l-43.295,0.958l-0.354,0.008l-0.354,0 
		c-1.563,0-3.054,0.007-4.472,0.014c-1.425,0.009-2.791,0.015-4.106,0.015c-9.845,0-21.004,0-34.457-6.528
		c-10.072-4.887-20.152-12.67-37.188-28.715c-17.401-16.385-53.61-50.479-74.985-50.479c-1.468,0-2.85,0.175-4.136,0.526
		c-5.198,1.419-10.635,12.348-14.189,28.521C 34.054,124.589, 32,152.593, 32,192.646c0,18.804, 2.901,39.153, 8.391,58.848
		c 5.472,19.634, 13.415,38.258, 22.969,53.859c 10.603,17.312, 22.968,30.836, 36.753,40.195c 14.639,9.94, 30.805,14.98, 48.051,14.98
		c 24.161,0, 36.71-7.071, 51.251-15.264c 14.451-8.142, 30.83-17.37, 56.592-17.372c 25.752,0.003, 42.13,9.23, 56.588,17.376
		c 14.531,8.188, 27.082,15.26, 51.244,15.26c 17.244,0, 33.411-5.041, 48.050-14.98c 13.787-9.362, 26.152-22.886, 36.753-40.196
		c 9.554-15.601, 17.496-34.225, 22.968-53.859c 5.489-19.695, 8.391-40.044, 8.391-58.848C 480,152.597, 477.945,124.592, 473.534,104.517zM 320,288A32,32 6300 1 0 384,288A32,32 6300 1 0 320,288zM 384,224A32,32 6300 1 0 448,224A32,32 6300 1 0 384,224zM 128,288c 17.645,0, 32-14.355, 32-32s-14.355-32-32-32s-32,14.355-32,32S 110.355,288, 128,288 M 128,320
		c-35.29,0-64-28.71-64-64c0-35.29, 28.71-64, 64-64s 64,28.71, 64,64C 192,291.29, 163.29,320, 128,320L 128,320z"/>
<glyph unicode="" d="M 400,320L 112,320 C 50.144,320,0,269.856,0,208c0-61.855, 50.144-112, 112-112c 44.677,0, 83.237,26.162, 101.215,64l 85.567,0 
	c 17.978-37.838, 56.538-64, 101.218-64c 61.854,0, 112,50.145, 112,112C 512,269.856, 461.857,320, 400,320z M 168.89,192L 128,192 l0-40.891 L 96,151.109 L 96,192 
	L 55.11,192 l0,32 L 96,224 l0,40.89 l 32,0 L 128,224 l 40.89,0 L 168.89,192 z M 368,151.109c-13.747,0-24.892,11.145-24.892,24.891s 11.145,24.891, 24.892,24.891
	c 13.743,0, 24.89-11.145, 24.89-24.891S 381.743,151.109, 368,151.109z M 432,215.109c-13.747,0-24.892,11.144-24.892,24.891
	s 11.145,24.89, 24.892,24.89c 13.743,0, 24.891-11.144, 24.891-24.89S 445.743,215.109, 432,215.109z"/>
<glyph unicode="" d="M 482.365,390.598C 435.414,445.323, 365.76,480, 288,480C 146.615,480, 32,365.385, 32,224s 114.615-256, 256-256
	c 77.76,0, 147.414,34.678, 194.364,89.402L 320,224L 482.365,390.598z M 352,419.699c 19.716,0, 35.699-15.982, 35.699-35.699
	c0-19.716-15.983-35.699-35.699-35.699S 316.301,364.284, 316.301,384C 316.301,403.716, 332.284,419.699, 352,419.699z"/>
<glyph unicode="" d="M 408.785,305.925C 312.002,377.854, 278.652,435.434, 256.002,479.999l0,0C 256,479.999, 256,480, 256,480l0-0.001 
	c-22.648-44.565-56-102.146-152.783-174.074c-165.018-122.643-9.688-293.834, 126.879-199.612
	c-8.898-58.465-39.265-101.086-70.104-119.441L 159.992-32 l 96.008,0 l 96.008,0 l0,18.87 c-30.841,18.354-61.205,60.977-70.106,119.442
	C 418.47,12.089, 573.802,183.282, 408.785,305.925z"/>
<glyph unicode="" d="M 393.416,283.614c-29.516,0-56.043-12.298-74.926-32.347c-7.998-8.492-21.881-18.556-36.9-27.405
	c 7.055,26.934, 29.338,60.85, 44.814,75.728c 19.82,19.085, 31.992,45.915, 31.992,75.75C 358.399,432.787, 312.658,479.388, 256.002,480
	c-56.66-0.611-102.398-47.213-102.398-104.659c0-29.836, 12.172-56.665, 31.993-75.75c 15.477-14.878, 37.76-48.794, 44.814-75.728
	c-15.021,8.85-28.903,18.913-36.9,27.405c-18.884,20.049-45.41,32.347-74.925,32.347c-57.193,0-103.54-46.832-103.54-104.664
	c0-57.819, 46.346-104.669, 103.54-104.669c 29.521,0, 56.041,12.678, 74.925,32.726c 8.402,8.936, 23.222,20.069, 39.146,29.316
	c-1.501-73.846-36.766-128.084-72.659-149.453L 159.998-32 l 96.005,0 l 96.002,0 l0,18.87 c-35.896,21.368-71.16,75.608-72.66,149.453
	c 15.926-9.247, 30.744-20.384, 39.146-29.316c 18.883-20.047, 45.404-32.726, 74.926-32.726c 57.193,0, 103.539,46.85, 103.539,104.669
	C 496.955,236.782, 450.61,283.614, 393.416,283.614z"/>
<glyph unicode="" d="M 256,480L 96,224L 256-32L 416,224 z"/>
<glyph unicode="" d="M 487.024,347.25c-16.872,16.872-40.057,24.976-65.75,24.976c-34.444,0-73.404-14.558-107.766-42.062
		c-8.132,24.908-23.24,43.758-41.509,50.811L 271.999,416 l 48,0 L 319.999,448 l-48,0 L 271.999,480 l-32,0 l0-32 l-48,0 l0-32 l 48,0 l0-35.024 c-18.268-7.053-33.376-25.902-41.508-50.809
		c-34.361,27.503-73.321,42.062-107.765,42.060c-25.693-0.002-48.879-8.104-65.75-24.976
		c-43.739-43.739-28.542-129.85, 33.941-192.333C 70.596,143.239, 83.103,133.224, 96,124.925l0-46.882 
		C 139.829,69.258, 195.454,64, 256,64s 116.171,5.258, 160,14.043l0,46.88 c 12.897,8.298, 25.404,18.314, 37.083,29.993
		C 515.566,217.4, 530.763,303.512, 487.024,347.25z M 81.546,290.678c 0.539,0.36, 3.423,1.548, 9.181,1.549l 0.006,0 l 0.002,0 
		c 15.925,0, 43.814-9.293, 70.005-35.484c 17.287-17.287, 29.66-38.181, 33.948-57.326c 3.059-13.66, 0.767-20.748-0.007-21.868
		c-0.536-0.359-3.416-1.549-9.18-1.549c-15.928,0-43.822,9.294-70.015,35.486c-17.288,17.289-29.662,38.185-33.948,57.33
		C 78.48,282.472, 80.772,289.557, 81.546,290.678z M 430.461,268.81c-4.287-19.145-16.66-40.039-33.946-57.324
		C 370.322,185.293, 342.429,176, 326.5,176c-5.762,0-8.644,1.188-9.18,1.548c-0.773,1.119-3.066,8.204-0.009,21.862
		c 4.286,19.146, 16.66,40.041, 33.948,57.33c 26.192,26.192, 54.087,35.486, 70.015,35.486c 5.764,0, 8.645-1.188, 9.18-1.548
		C 431.228,289.558, 433.521,282.47, 430.461,268.81zM 96,29.168l0-47.125 C 139.829-26.742, 195.454-32, 256-32s 116.171,5.258, 160,14.043l0,47.125 
		C 369.086,20.543, 314.020,16, 256,16S 142.914,20.543, 96,29.168z"/>
<glyph unicode="" d="M 256,0c-57.294,0-112.881,4.967-156.521,13.984c-1.169,0.241-2.328,0.487-3.479,0.734l0-32.676 
		C 139.829-26.742, 195.454-32, 256-32s 116.171,5.258, 160,14.043l0,32.676 c-1.151-0.247-2.31-0.493-3.479-0.734
		C 368.882,4.967, 313.295,0, 256,0zM 384,49.003L 384,64 l-16,32L 144,96 l-16-32l0-14.997 c 37.655-5.446, 81.37-8.564, 128-8.564
		C 302.631,40.438, 346.345,43.557, 384,49.003zM 500.754,339.172c-14.997,14.997-39.311,14.997-54.307,0c-12.725-12.724-14.646-32.154-5.776-46.911l-97.661-58.597
		l 19.253,90.858c 16.84-3.581, 34.585,4.562, 42.474,20.735c 9.297,19.062, 1.381,42.050-17.68,51.347
		c-19.062,9.297-42.051,1.381-51.348-17.681c-7.889-16.174-3.38-35.171, 9.811-46.236l-59.104-70.348l-21.101,84.403
		c 16.705,4.163, 29.085,19.261, 29.085,37.256c0,21.208-17.192,38.4-38.399,38.4c-21.208,0-38.4-17.192-38.4-38.4
		c0-17.995, 12.38-33.093, 29.086-37.256l-21.101-84.403l-59.104,70.348c 13.19,11.065, 17.699,30.062, 9.811,46.236
		c-9.297,19.062-32.286,26.978-51.348,17.681c-19.061-9.297-26.977-32.286-17.68-51.347c 7.888-16.174, 25.634-24.316, 42.474-20.735
		l 19.252-90.858l-97.66,58.597c 8.87,14.757, 6.947,34.187-5.777,46.911c-14.996,14.997-39.31,14.997-54.307,0
		c-14.995-14.996-14.995-39.309, 0.001-54.306c 12.724-12.724, 32.154-14.646, 46.91-5.777L 148.811,128l 214.378,0 l 90.653,151.089
		c 14.756-8.869, 34.186-6.947, 46.91,5.777C 515.749,299.863, 515.749,324.177, 500.754,339.172z"/>
<glyph unicode="" d="M 96,336L 384,336L 384,80L 96,80zM 384,352l 64,64L 448,480 l-64,0 l0-32 l-96,0 L 288,480 l-96,0 l0-32 L 96,448 L 96,480 L 32,480 l0-64 l 64-64L 384,352 z M 384,400l-16-16L 112,384 L 96,400L 384,400 zM 64,64L 416,64L 416,32L 64,32zM 448,16L 32,16 c0,0-24.5-16-32-48l 480,0 C 472.5,0, 448,16, 448,16z"/>
<glyph unicode="" d="M 396.797,96L 83.204,96 c 14.825-36.516, 79.39-64, 156.796-64S 381.972,59.484, 396.797,96zM0-32l 45,0 c0,1.29, 1.402,5.613, 5.57,10.059S 58.791-16, 60-16l 135,0 c 26.719,0.5, 45,31.5, 45,48c0,0-150,0-180,0S0,0,0-32zM 420,32c-30,0-180,0-180,0c0-16.5, 18.281-47.5, 45-48l 135,0 c 1.209,0, 5.263-1.496, 9.43-5.941
		c 4.168-4.445, 5.57-8.769, 5.57-10.059l 45,0 C 480,0, 450,32, 420,32zM 240,128l 156.797,0 c-6.501,16.013-22.567,30.287-45.086,41.271C 362.080,183.277, 368,201.294, 368,224
		c0,80.469-58.467,132.785-99.354,151.882C 285.024,385.653, 296,403.542, 296,424c0,30.928-25.072,56-56,56c-30.928,0-56-25.072-56-56
		c0-20.458, 10.976-38.347, 27.354-48.118C 170.467,356.785, 112,304.469, 112,224c0-22.706, 5.92-40.723, 16.289-54.729
		C 105.771,158.287, 89.704,144.012, 83.204,128L 240,128 C 240,128, 240,128, 240,128z M 160,256l0,32 l 64,0 l0,64 l 32,0 l0-64 l 64,0 l0-32 l-64,0 l0-64 l-32,0 l0,64 L 160,256 z"/>
<glyph unicode="" d="M 496,0L 128,0L 112-32L 512-32 	zM 283.746,224c 6.724-103.949-84.766-144.757-116.334-208L 480,16 c0,35.797,0,92.966,0,176
		c0,111.17-43.536,191.427-94.956,230.070c-2.373,10.093-5.959,21.243-9.954,30.304l-6.18,14.013
		c-7.102,16.104-22.144,18.229-33.426,4.722l-19.313-23.118C 316.030,447.992, 315.888,448, 315.746,448
		c-8.234,0-15.821-0.257-22.854-0.745L 250.626,475.433C 235.981,485.196, 224,478.784, 224,461.184l0-32.592 
		c-12.982-7.351-23.863-16.243-36.254-25.691c-32-24.399-108.926-121.066-160-178.901c-47.246-53.5-21.725-96, 23-86
		c-2.246-42, 32.754-28.5, 57-10C 163.653,170.657, 288.5,150.5, 283.746,224z M 387.463,393.462c 17.253-17.466, 32.154-39.811, 43.73-65.751
		C 448.981,287.854, 458,242.194, 458,192l0-144 l-48,48l0,96 c0,43.411-7.617,82.489-22.64,116.149
		c-9.204,20.625-20.739,38.084-33.835,51.375L 387.463,393.462z M 80,185.372c-12.497,0-22.628,10.13-22.628,22.628
		c0,12.497, 10.131,22.627, 22.628,22.627c 12.496,0, 22.627-10.13, 22.627-22.627C 102.627,195.502, 92.496,185.372, 80,185.372z
		 M 240.971,336.029c-18.746-18.745-41.539-26.343-50.912-16.971c-9.373,9.373-1.775,32.167, 16.97,50.912
		c 18.745,18.745, 41.539,26.343, 50.913,16.97C 267.312,377.568, 259.716,354.774, 240.971,336.029z"/>
<glyph unicode="" d="M 368.010,162.020C 378.193,180.385, 384,201.513, 384,224c0,51.657-30.604,96.162-74.667,116.386
	C 325.695,355.035, 336,376.311, 336,400c0,44.183-35.817,80-80,80c-44.183,0-80-35.817-80-80c0-23.69, 10.305-44.965, 26.667-59.614
	C 158.604,320.162, 128,275.657, 128,224c0-22.487, 5.806-43.615, 15.99-61.98C 77.044,123.287, 32,50.906, 32-32l 448,0 
	C 480,50.906, 434.956,123.287, 368.010,162.020z"/>
<glyph unicode="" d="M 448,480L 512,480L 512,416L 448,416zM 448,352L 512,352L 512,288L 448,288zM 448,224L 512,224L 512,160L 448,160zM 448,96L 512,96L 512,32L 448,32zM 384,416L 448,416L 448,352L 384,352zM 384,288L 448,288L 448,224L 384,224zM 384,160L 448,160L 448,96L 384,96zM 384,32L 448,32L 448-32L 384-32zM 320,480L 384,480L 384,416L 320,416zM 320,352L 384,352L 384,288L 320,288zM 320,224L 384,224L 384,160L 320,160zM 320,96L 384,96L 384,32L 320,32zM 256,416L 320,416L 320,352L 256,352zM 256,288L 320,288L 320,224L 256,224zM 256,160L 320,160L 320,96L 256,96zM 256,32L 320,32L 320-32L 256-32zM 192,480L 256,480L 256,416L 192,416zM 192,352L 256,352L 256,288L 192,288zM 192,224L 256,224L 256,160L 192,160zM 192,96L 256,96L 256,32L 192,32zM 128,416L 192,416L 192,352L 128,352zM 128,288L 192,288L 192,224L 128,224zM 128,160L 192,160L 192,96L 128,96zM 128,32L 192,32L 192-32L 128-32zM 64,480L 128,480L 128,416L 64,416zM 64,352L 128,352L 128,288L 64,288zM 64,224L 128,224L 128,160L 64,160zM 64,96L 128,96L 128,32L 64,32zM0,416L 64,416L 64,352L0,352zM0,288L 64,288L 64,224L0,224zM0,160L 64,160L 64,96L0,96zM0,32L 64,32L 64-32L0-32z"/>
<glyph unicode="" d="M 512,265.372c0,100.463-29.396,181.969-65.741,182.613c 0.146,0.003, 0.289,0.015, 0.436,0.015l-41.471,0 
	c0,0-97.4-73.168-237.615-101.877c-4.28-22.646-7.015-49.637-7.015-80.751c0-31.114, 2.733-58.104, 7.015-80.75
	c 140.214-28.709, 237.615-101.878, 237.615-101.878l 41.471,0 c-0.146,0-0.289,0.012-0.436,0.016C 482.607,83.404, 512,164.909, 512,265.372
	z M 432.412,110.374c-4.691,0-9.766,4.871-12.373,7.774c-6.315,7.032-12.396,17.98-17.594,31.664
	c-11.628,30.616-18.033,71.655-18.033,115.562c0,43.905, 6.405,84.945, 18.033,115.561c 5.197,13.684, 11.281,24.633, 17.594,31.664
	c 2.607,2.906, 7.682,7.776, 12.373,7.776c 4.69,0, 9.768-4.872, 12.372-7.776c 6.317-7.032, 12.398-17.979, 17.594-31.664
	c 11.629-30.615, 18.034-71.656, 18.034-115.561c0-43.902-6.405-84.944-18.034-115.562c-5.195-13.684-11.281-24.632-17.594-31.664
	C 442.18,115.245, 437.104,110.374, 432.412,110.374z M 125.906,265.372c0,25.975, 1.905,51.215, 5.526,74.547
	c-23.686-3.277-44.471-5.162-70.17-5.162c-33.529,0-33.529,0-33.529,0L0,287.414l0-44.085 l 27.73-47.343c0,0,0,0, 33.53,0
	c 25.699,0, 46.484-1.887, 70.17-5.162C 127.812,214.156, 125.906,239.397, 125.906,265.372z M 184.075,158.914l-63.999,12.255
	l 40.921-160.772c 2.118-8.317, 10.372-12.519, 18.343-9.327l 59.278,23.726c 7.972,3.188, 11.164,11.982, 7.098,19.542L 184.075,158.914zM 432.412,205.635c-1.809,0-3.764,1.877-4.769,2.996c-2.435,2.71-4.778,6.93-6.781,12.204
	c-4.481,11.8-6.95,27.617-6.95,44.539c0,16.922, 2.469,32.739, 6.95,44.539c 2.003,5.274, 4.348,9.494, 6.781,12.204
	c 1.005,1.12, 2.96,2.997, 4.769,2.997c 1.808,0, 3.765-1.878, 4.769-2.997c 2.435-2.71, 4.778-6.929, 6.78-12.204
	c 4.482-11.799, 6.951-27.617, 6.951-44.539c0-16.921-2.469-32.739-6.951-44.539c-2.002-5.274-4.348-9.494-6.78-12.204
	C 436.177,207.512, 434.221,205.635, 432.412,205.635z"/>
<glyph unicode="" d="M 64,288L0,288 l0-160 l 64,0 l0,32 l 64.009-18.289c-0.002-0.242-0.009-0.484-0.009-0.729L 128,96 c0-17.602, 14.399-32, 32-32l 64,0 
		c 17.6,0, 32,14.398, 32,32l0,9.143 l 160-45.715L 416,356.57 L 64,256L 64,288 z M 160,132.57l 63.928-18.265L 223.928,96 L 160,96 L 160,132.57 zM 448,365.714L 448,50.285L 512,32L 512,384 	z"/>
<glyph unicode="" d="M 448,384L 64,384 c-35.2,0-64-28.8-64-64l0-192 c0-35.2, 28.8-64, 64-64l 384,0 c 35.2,0, 64,28.8, 64,64L 512,320 C 512,355.2, 483.2,384, 448,384z
	 M 160,128l-32,0 L 64,234.667L 64,128 L 32,128 L 32,288 l 32,0 l 64-106.667L 128,288 l 32,0 L 160,128 z M 288,256l-64,0 l0-32 l 64,0 l0-32 l-64,0 l0-32 l 64,0 l0-31.999 L 192,128L 192,288 l 96,0 L 288,256 z
	 M 480,128l-47.999,0 L 400,192l-32-64l-48,0 L 320,288 l 32,0 l0-128 l 32,64l 32.001,0 L 448,160.002L 448,288 l 32,0 L 480,128 z"/>
<glyph unicode="" d="M 320,192 C 372.935,192 420.935,170.467 455.701,135.701 L 410.467,90.467 C 387.29,113.645 355.289,128 320,128 C 284.711,128 252.711,113.645 229.533,90.467 L 184.299,135.701 C 219.065,170.467 267.065,192 320,192 ZM 93.726,226.274 C 154.166,286.714 234.525,320 320,320 C 405.475,320 485.834,286.714 546.275,226.274 L 501.020,181.020 L 501.020,181.020 C 452.667,229.372 388.38,256 320,256 C 251.619,256 187.333,229.372 138.981,181.019 L 93.726,226.274 ZM 494.392,412.781 C 547.743,390.215 595.65,357.917 636.783,316.783 L 636.783,316.783 L 591.529,271.529 C 519.001,344.057 422.569,384 320,384 C 217.43,384 121,344.057 48.471,271.529 L 3.216,316.784 C 44.35,357.917 92.257,390.215 145.608,412.781 C 200.86,436.15 259.534,448 320,448 C 380.466,448 439.139,436.15 494.392,412.781 ZM 288,32A32,32 2700 1 0 352,32A32,32 2700 1 0 288,32z" horiz-adv-x="640"/>
<glyph unicode="" d="M 288,32A32,32 2700 1 0 352,32A32,32 2700 1 0 288,32zM 320,384c 112.8,0, 216.385-34.658, 297.72-92.509C 546.826,387.098, 439.777,448, 320,448C 200.223,448, 93.175,387.098, 22.281,291.492
	C 103.616,349.342, 207.2,384, 320,384zM 320,256c 76.853,0, 147.895-20.56, 205.514-55.385C 479.462,272.936, 404.574,320, 320,320s-159.462-47.064-205.514-119.385
	C 172.105,235.44, 243.146,256, 320,256zM 320,128c 40.751,0, 79.405-5.262, 114.121-14.676C 411.059,160.413, 368.588,192, 320,192s-91.059-31.587-114.121-78.676
	C 240.595,122.738, 279.248,128, 320,128z" horiz-adv-x="640"/>
<glyph unicode="" d="M 512,224C 512,365.385, 397.385,480, 256,480S0,365.385,0,224c0-110.027, 69.418-203.832, 166.843-240.034L 160-32l 192,0 l-6.843,15.966
	C 442.582,20.168, 512,113.973, 512,224z M 243.395,162.587C 231.991,167.481, 224,178.805, 224,192c0,17.673, 14.327,32, 32,32
	c 17.673,0, 32-14.327, 32-32c0-13.195-7.989-24.522-19.393-29.417L 256,192L 243.395,162.587z M 269.134,161.354
	C 298.18,167.413, 320,193.155, 320,224c0,35.347-28.653,64-64,64c-35.346,0-64-28.653-64-64c0-30.846, 21.831-56.561, 50.88-62.614
	l-37.312-87.061C 159.953,93.9, 128,139.217, 128,192c0,70.692, 57.308,134, 128,134s 128-63.308, 128-134
	c0-52.783-31.953-98.1-77.568-117.675L 269.134,161.354z M 344.224-13.854l-36.962,86.243C 370.485,93.758, 416,153.562, 416,224
	c0,88.365-71.634,160-160,160c-88.365,0-160-71.635-160-160c0-70.438, 45.515-130.242, 108.738-151.611l-36.962-86.243
	C 87.979,20.39, 32.083,99.663, 32.083,192C 32.083,315.666, 132.334,421.917, 256,421.917c 123.666,0, 223.917-106.251, 223.917-229.917
	C 479.917,99.663, 424.021,20.39, 344.224-13.854z"/>
<glyph unicode="" d="M 320,320c0,35.346-28.653,64-64,64c-35.346,0-64-28.654-64-64c0-22.677, 11.804-42.583, 29.592-53.952L 140.306-32l 39.388,0 
		l 8.727,32l 135.158,0 l 8.728-32l 39.388,0 l-81.286,298.048C 308.196,277.417, 320,297.323, 320,320z M 297.397,96l-82.794,0 l 8.727,32l 65.34,0 
		L 297.397,96z M 232.058,160L 256,247.789L 279.942,160L 232.058,160 z M 197.148,32l 8.728,32l 100.249,0 l 8.727-32L 197.148,32 zM 332.174,460.737 C 382.1,433.658 416,380.788 416,320 C 416,259.212 382.1,206.342 332.174,179.263 C 354.207,214.326 368,264.398 368,320 C 368,375.602 354.207,425.674 332.174,460.737 ZM 428.174,460.737 C 478.1,433.658 512,380.788 512,320 C 512,259.212 478.1,206.342 428.174,179.263 C 450.207,214.326 464,264.398 464,320 C 464,375.602 450.207,425.674 428.174,460.737 ZM 179.826,179.263 C 129.9,206.343 96,259.212 96,320 C 96,380.788 129.9,433.657 179.826,460.737 C 157.792,425.674 144,375.602 144,320 C 144,264.398 157.792,214.326 179.826,179.263 ZM 0,320 C 0,380.788 33.9,433.657 83.826,460.737 C 61.792,425.674 48,375.602 48,320 C 48,264.398 61.792,214.326 83.826,179.263 C 33.9,206.343 0,259.212 0,320 Z"/>
<glyph unicode="" d="M 192,224A64,64 2700 1 0 320,224A64,64 2700 1 0 192,224zM 332.174,364.737 C 382.1,337.658 416,284.788 416,224 C 416,163.212 382.1,110.342 332.174,83.263 C 354.207,118.326 368,168.398 368,224 C 368,279.602 354.207,329.674 332.174,364.737 ZM 144,224 C 144,168.398 157.792,118.326 179.826,83.263 C 129.9,110.343 96,163.212 96,224 C 96,284.788 129.9,337.657 179.826,364.737 C 157.792,329.674 144,279.602 144,224 ZM 48,224 C 48,138.050 75.202,60.908 118.326,8.139 C 47.175,53.613 0,133.296 0,224 C 0,314.704 47.175,394.387 118.326,439.861 C 75.202,387.092 48,309.95 48,224 ZM 393.676,439.86 C 464.825,394.387 512,314.704 512,224 C 512,133.296 464.825,53.613 393.676,8.14 C 436.798,60.908 464,138.050 464,224 C 464,309.95 436.798,387.092 393.676,439.86 Z"/>
<glyph unicode="" d="M 224,96A32,32 12780 1 0 288,96A32,32 12780 1 0 224,96zM 256,416c-96.026,0-182.161-42.307-240.815-109.286l 24.081-21.071C 92.055,345.923, 169.577,384, 256,384
		c 86.423,0, 163.945-38.077, 216.734-98.357l 24.081,21.071C 438.161,373.693, 352.027,416, 256,416zM 256,320c-67.218,0-127.513-29.615-168.571-76.5l 24.082-21.071C 146.703,262.616, 198.385,288, 256,288
		c 57.616,0, 109.297-25.384, 144.489-65.571l 24.082,21.071C 383.513,290.385, 323.219,320, 256,320zM 256,224c-38.41,0-72.865-16.923-96.326-43.715l 24.082-21.071C 201.352,179.308, 227.192,192, 256,192
		c 28.808,0, 54.648-12.692, 72.245-32.786l 24.081,21.071C 328.865,207.077, 294.41,224, 256,224z"/>
<glyph unicode="" d="M 224,288L 96-32l 48.596,0 L 256,65.479L 367.406-32L 416-32 L 288,288L 224,288 z M 149.024,14.395l 42.871,107.179l 39.81-34.833
			L 149.024,14.395z M 362.978,14.396l-82.68,72.344l 39.809,34.833L 362.978,14.396z M 256,108l-51.507,45.068L 245.665,256l 20.67,0 
			l 41.173-102.932L 256,108zM 366.871,415.999C 377.764,397.172, 384,375.314, 384,352s-6.236-45.172-17.129-63.999l 27.72-16
			C 408.204,295.535, 416,322.856, 416,352s-7.796,56.465-21.409,79.999L 366.871,415.999zM 145.128,288.001C 134.238,306.828, 128,328.686, 128,352s 6.236,45.172, 17.128,63.999L 117.41,431.998
			C 103.796,408.464, 96,381.144, 96,352s 7.796-56.464, 21.41-79.999L 145.128,288.001zM 34.252,480C 12.47,442.345,0,398.629,0,352s 12.47-90.345, 34.252-127.999l 27.719,16C 42.911,272.948, 32,311.199, 32,352
			S 42.911,431.052, 61.971,464L 34.252,480zM 512,352c0,46.63-12.47,90.346-34.253,128l0,0L 450.030,464C 469.090,431.052, 480,392.801, 480,352s-10.91-79.053-29.971-112
			l 27.718-16l0,0C 499.531,261.654, 512,305.37, 512,352zM 224,352A32,32 12780 1 0 288,352A32,32 12780 1 0 224,352z"/>
<glyph unicode="" d="M 256,480C 114.615,480,0,365.385,0,224c0-70.691, 28.653-134.691, 74.98-181.019l 22.627,22.626C 57.072,106.145, 32,162.145, 32,224
			C 32,347.712, 132.288,448, 256,448s 224-100.288, 224-224c0-61.855-25.072-117.855-65.608-158.393l 22.628-22.626
			C 483.346,89.309, 512,153.309, 512,224C 512,365.385, 397.385,480, 256,480zM 256,480C 114.615,480,0,365.385,0,224c0-70.691, 28.653-134.691, 74.98-181.019l 22.627,22.626C 57.072,106.145, 32,162.145, 32,224
			C 32,347.712, 132.288,448, 256,448s 224-100.288, 224-224c0-61.855-25.072-117.855-65.608-158.393l 22.628-22.626
			C 483.346,89.309, 512,153.309, 512,224C 512,365.385, 397.385,480, 256,480L 256,480zM 256,384c-88.366,0-160-71.634-160-160c0-44.184, 17.909-84.184, 46.862-113.137l 22.639,22.638
			c-23.161,23.161-37.486,55.157-37.486,90.499c0,70.684, 57.301,127.985, 127.985,127.985c 70.684,0, 127.984-57.301, 127.984-127.985
			c0-35.342-14.325-67.338-37.486-90.499l 22.639-22.638C 398.092,139.816, 416,179.816, 416,224C 416,312.366, 344.365,384, 256,384zM 301.255,178.745C 312.837,190.327, 320,206.327, 320,224c0,35.346-28.654,64-64,64c-35.347,0-64-28.654-64-64
		c0-17.673, 7.164-33.673, 18.745-45.255l 22.627,22.627C 227.582,207.163, 224,215.163, 224,224c0,17.673, 14.327,32, 32,32
		s 32-14.327, 32-32c0-8.837-3.582-16.837-9.372-22.628L 301.255,178.745zM 244,192L 160-32L 352-32L 268,192 	z"/>
<glyph unicode="" d="M 160-32l 192,0 l-64,64L 288,264.583 c 19.124,11.067, 32,31.732, 32,55.417c0,35.346-28.653,64-64,64c-35.346,0-64-28.654-64-64
		c0-23.685, 12.876-44.349, 32-55.417L 224,32 L 160-32zM 355.918,399.996C 373.486,378.082, 384,350.271, 384,320s-10.515-58.082-28.082-79.996l 24.979-19.999
		C 402.857,247.397, 416,282.161, 416,320s-13.144,72.603-35.103,99.995L 355.918,399.996zM 131.102,419.994C 109.143,392.602, 96,357.838, 96,320s 13.143-72.602, 35.102-99.994l 24.979,19.999
		C 138.515,261.918, 128,289.729, 128,320s 10.515,58.082, 28.082,79.995L 131.102,419.994zM 56.164,480C 21.030,436.172,0,380.551,0,320.009S 21.030,203.846, 56.164,160.020l 24.979,19.998
		C 50.401,218.367, 32,267.035, 32,320.009s 18.4,101.643, 49.143,139.992L 56.164,480zM 455.836,480l-24.979-19.999C 461.6,421.652, 480,372.983, 480,320.009s-18.4-101.644-49.144-139.992l 24.979-19.999
		C 490.971,203.846, 512,259.467, 512,320.009S 490.971,436.172, 455.836,480z"/>
<glyph unicode="" d="M 256,96c 70.692,0, 128,57.308, 128,128l0,64 L 128,288 l0-64 C 128,153.308, 185.308,96, 256,96zM 448,320l-32,0 l0-96 c0-88.365-71.635-160-160-160S 96,135.635, 96,224l0,96 L 64,320 l-32-32l 32,0 l0-64 c0-95.134, 69.196-174.094, 160-189.33
		L 224,0 l-64-32l 192,0 l-64,32l0,34.67 c 90.804,15.236, 160,94.196, 160,189.33l0,64 l 32,0 L 448,320zM 384,352C 384,422.692, 326.693,480, 256,480S 128,422.692, 128,352l0-32 l 256,0 L 384,352 z"/>
<glyph unicode="" d="M 420,256l0-64 c0-43.807-17.059-84.99-48.035-115.966C 340.99,45.059, 299.807,28, 256,28
		c-43.806,0-84.99,17.059-115.965,48.034C 109.060,107.010, 92,148.193, 92,192l0,64 L 64,256 l0-64 c0-95.135, 69.195-174.094, 160-189.33L 224,0 l-96,0 l0-32 
		l 256,0 l0,32 l-96,0 l0,2.67 c 90.804,15.236, 160,94.195, 160,189.33l0,64 L 420,256 zM 256,480c-70.692,0-128-57.308-128-128l0-160 c0-70.693, 57.308-128, 128-128c 70.692,0, 128,57.307, 128,128L 384,352 
		C 384,422.692, 326.692,480, 256,480z M 348,400.452c 3.314-6.269, 6.012-12.912, 8-19.852L 356,288 l-8,0 L 348,400.452 z M 332,422.912
		c 2.854-3.057, 5.526-6.286, 8-9.669L 340,288 l-8,0 L 332,422.912 z M 316,436.901c 2.77-1.962, 5.439-4.056, 8-6.273L 324,288 l-8,0 L 316,436.901 z M 300,446.219
		c 2.732-1.281, 5.402-2.674, 8-4.18L 308,288 l-8,0 L 300,446.219 z M 284,452.167c 2.713-0.759, 5.381-1.625, 8-2.594L 292,288 l-8,0 L 284,452.167 z M 268,455.304
		c 2.699-0.312, 5.367-0.726, 8-1.241L 276,288 l-8,0 L 268,455.304 z M 252,455.916c 1.328,0.051, 2.66,0.084, 4,0.084s 2.672-0.034, 4-0.084L 260,288 l-8,0 L 252,455.916 z
		 M 236,454.062c 2.633,0.515, 5.301,0.93, 8,1.241L 244,288 l-8,0 L 236,454.062 z M 220,449.573c 2.619,0.969, 5.287,1.834, 8,2.594L 228,288 l-8,0 L 220,449.573 z
		 M 204,442.039c 2.597,1.506, 5.268,2.898, 8,4.18L 212,288 l-8,0 L 204,442.039 z M 188,430.628c 2.561,2.217, 5.231,4.311, 8,6.273L 196,288 l-8,0 L 188,430.628 z
		 M 172,413.243c 2.474,3.383, 5.146,6.612, 8,9.669L 180,288 l-8,0 L 172,413.243 z M 156,380.6c 1.988,6.94, 4.686,13.583, 8,19.852L 164,288 l-8,0 L 156,380.6 z M 360,192
		c0-57.346-46.654-104-104-104s-104,46.654-104,104l0,64 l 208,0 L 360,192 z"/>
<glyph unicode="" d="M 240,128c 44.183,0, 80,35.817, 80,80L 320,400 c0,44.183-35.817,80-80,80s-80-35.817-80-80l0-192 C 160,163.817, 195.818,128, 240,128zM 352,256l0-48 c0-61.855-50.145-112-112-112c-61.856,0-112,50.145-112,112l0,48 L 96,256 l0-48 c0-74.119, 56.002-135.15, 128-143.11L 224,0 
		l-64,0 l0-32 l 64,0 l 32,0 l 64,0 l0,32 l-64,0 l0,64.89 c 71.997,7.96, 128,68.991, 128,143.11l0,48 L 352,256 z"/>
<glyph unicode="" d="M 320,400c0,44.183-35.816,80-80,80c-44.183,0-80-35.817-80-80l0-172.118 l 160,160L 320,400 zM 128.587,196.469C 128.2,200.26, 128,204.106, 128,208l0,48 L 96,256 l0-48 c0-13.45, 1.853-26.467, 5.302-38.816L 128.587,196.469zM 352,208c0-61.855-50.145-112-112-112c-33.313,0-63.215,14.557-83.729,37.644l 22.69,22.69
		C 193.629,139.010, 215.52,128, 240,128c 44.184,0, 80,35.816, 80,80l0,89.373 L 448.313,425.687l-22.627,22.627L 320,342.627l0,0.001 L 1,22.313
		l 22.627-22.627l 109.986,111.3c 22.954-25.155, 54.699-42.151, 90.387-46.097L 224,0 l-64,0 l0-32 l 64,0 l 32,0 l 64,0 l0,32 l-64,0 l0,64.89 
		c 71.997,7.96, 128,68.991, 128,143.11l0,48 l-32,0 L 352,208 z"/>
<glyph unicode="" d="M 229.053,311.954L0,32c0-32, 32-64, 64-64l 279.954,229.054C 287.768,211.533, 243.533,255.768, 229.053,311.954zM 291.482,440.452C 269.502,417.469, 256,386.312, 256,352c0-70.692, 57.308-128, 128-128c 34.312,0, 65.469,13.502, 88.452,35.481
		C 380.441,275.873, 307.872,348.44, 291.482,440.452zM 416,416L 448,416L 448,384L 416,384zM 384,480c-23.014,0-44.606-6.078-63.268-16.71c 7.994-92.704, 81.854-166.564, 174.558-174.558
		C 505.922,307.393, 512,328.986, 512,352C 512,422.692, 454.693,480, 384,480z M 480,384l-32,0 l0-32 l 32,0 l0-32 l-32,0 l0,32 l-32,0 L 416,384 l-32,0 L 384,416 l-32,0 L 352,448 l 32,0 l0-32 l 32,0 L 416,448 
		l 32,0 l0-32 l 32,0 L 480,384 z"/>
<glyph unicode="" d="M 384,416c-49.179,0-94.030-18.498-128-48.905C 222.031,397.502, 177.179,416, 128,416S 33.969,397.502,0,367.096l0-8.596 l0-38.49 l0-192.004 
	L0,87.5 l0-6.576 c 0.342-0.306, 0.676-0.62, 1.020-0.924c 8.209-7.244, 17.040-13.798, 26.406-19.569c 9.43,7.631, 19.739,14.216, 30.761,19.569
	c 21.098,10.248, 44.783,16, 69.813,16s 48.716-5.752, 69.813-16c 11.021-5.354, 21.331-11.938, 30.761-19.569
	c 1.842-1.491, 3.65-3.022, 5.424-4.592c 8.108-7.178, 15.488-15.159, 22.002-23.83c 6.515,8.671, 13.894,16.652, 22.002,23.83
	c 1.773,1.569, 3.581,3.101, 5.424,4.592c 9.43,7.631, 19.739,14.216, 30.761,19.569c 21.098,10.248, 44.783,16, 69.813,16
	s 48.716-5.752, 69.813-16c 11.021-5.354, 21.331-11.938, 30.761-19.569c 9.366,5.771, 18.196,12.325, 26.405,19.569
	c 0.344,0.304, 0.679,0.618, 1.021,0.924L 512,87.5 l0,40.506 L 512,320.010 L 512,358.5 l0,8.596 C 478.031,397.502, 433.179,416, 384,416z M 128,128
	c-34.976,0-67.758-9.365-96-25.705L 32,352.007 C 58.741,372.095, 91.98,384, 128,384c 36.025,0, 69.258-11.919, 96-32.013l0-249.692 
	C 195.758,118.635, 162.976,128, 128,128z M 384,128c-34.976,0-67.758-9.365-96-25.705L 288,351.987 C 314.742,372.081, 347.976,384, 384,384
	c 36.021,0, 69.259-11.906, 96-31.994l0-249.712 C 451.758,118.635, 418.976,128, 384,128z"/>
<glyph unicode="" d="M 448,416l0-416 L 112,0 c-26.511,0-48,21.49-48,48c0,26.509, 21.489,48, 48,48l 304,0 L 416,480 L 96,480 C 60.801,480, 32,451.2, 32,416l0-384 
		c0-35.2, 28.801-64, 64-64l 384,0 L 480,416 L 448,416 zM 128,64L 416,64L 416,32L 128,32z"/>
<glyph unicode="" d="M 288.117,335.365L 409.473,376.081L 511.265,72.689L 389.909,31.973zM0,32l 128,0 L 128,384 L0,384 L0,32 z M 32,320l 64,0 l0-32 L 32,288 L 32,320 zM 160,32l 128,0 L 288,384 L 160,384 L 160,32 z M 192,320l 64,0 l0-32 l-64,0 L 192,320 z"/>
<glyph unicode="" d="M 176,400A80,80 10980 1 0 336,400A80,80 10980 1 0 176,400zM 504.988,115.99l-128,160c-6.315,7.894-15.606,11.997-24.984,12.004L 352,288L 160,288 l-0.004-0.007
		c-9.378-0.007-18.669-4.11-24.984-12.002l-128-160c-8.402-10.502-9.34-25.138-2.348-36.627
		c 5.881-9.663, 16.314-15.365, 27.329-15.365c 2.082,0, 4.186,0.204, 6.282,0.623L 128,82.566L 128-32 l 256,0 L 384,82.566 l 89.725-17.945
		c 2.097-0.419, 4.199-0.623, 6.281-0.623c 11.015,0, 21.449,5.703, 27.329,15.365C 514.328,90.852, 513.39,105.488, 504.988,115.99z
		 M 352,154.233l-25.725,5.146c-17.325,3.468-34.188-7.772-37.654-25.104c-3.466-17.33, 7.773-34.188, 25.104-37.654L 352,88.966L 352,64 
		l-96-32l-96,32l0,24.966 l 38.276,7.655c 17.33,3.466, 28.569,20.324, 25.103,37.654c-3.466,17.331-20.326,28.564-37.654,25.104
		L 160,154.233L 160,224 l 96-32l 96,32L 352,154.233 z"/>
<glyph unicode="" d="M 272,480L0,352L 544,352 	zM 128.5,288L 128.5,320L 32.5,320L 32.5,288L 64.5,288L 64.5,96L 32.5,96L 32.5,64L 128.5,64L 128.5,96L 96.5,96L 96.5,288 	zM 256.5,288L 256.5,320L 160.5,320L 160.5,288L 192.5,288L 192.5,96L 160.5,96L 160.5,64L 256.5,64L 256.5,96L 224.5,96L 224.5,288 	zM 384.5,288L 384.5,320L 288.5,320L 288.5,288L 320.5,288L 320.5,96L 288.5,96L 288.5,64L 384.5,64L 384.5,96L 352.5,96L 352.5,288 	zM 512.5,288L 512.5,320L 416.5,320L 416.5,288L 448.5,288L 448.5,96L 416.5,96L 416.5,64L 512.5,64L 512.5,96L 480.5,96L 480.5,288 	zM 32.5,32L 0.5-32L 544-32L 512,32 	z" horiz-adv-x="544"/>
<glyph unicode="" d="M 256,480L0,320l 512,0 L 256,480z M 400,288l 16-32l0-192 l 64,0 L 480,256 l 16,32L 400,288 z M 272,288l 16-32l0-192 l 64,0 L 352,256 l 16,32L 272,288 z M 144,288l 16-32l0-192 l 64,0 
	L 224,256 l 16,32L 144,288 z M 16,288l 16-32l0-192 l 64,0 L 96,256 l 16,32L 16,288 z M 16,32L0-32l 512,0 l-16,64L 16,32 z M 288,384c0-17.673-14.327-32-32-32
	c-17.673,0-32,14.327-32,32s 14.327,32, 32,32C 273.673,416, 288,401.673, 288,384z"/>
<glyph unicode="" d="M 96,186.334L 96,112 c0-32, 71.634-80, 160-80c 88.365,0, 160,48, 160,80l0,74.334 l-160-80L 96,186.334zM 256,416L0,288l 256-128l 207.714,103.857L 448,128l 32,0 L 480,272 l 32,16L 256,416z M 272,280.8c-12.813,0-23.2,10.387-23.2,23.2
		c0,12.813, 10.387,23.2, 23.2,23.2s 23.2-10.387, 23.2-23.2C 295.2,291.187, 284.814,280.8, 272,280.8z"/>
<glyph unicode="" d="M 432,480L 48,480 C 21.6,480,0,458.4,0,432l0-416 c0-26.4, 21.6-48, 48-48l 384,0 c 26.4,0, 48,21.6, 48,48L 480,432 C 480,458.4, 458.4,480, 432,480z M 416,32L 64,32 
		L 64,416 l 352,0 L 416,32 zM 128,256L 352,256L 352,224L 128,224zM 128,192L 352,192L 352,160L 128,160zM 128,128L 352,128L 352,96L 128,96zM 128,320L 352,320L 352,288L 128,288z"/>
<glyph unicode="" d="M 432,480L 48,480 C 21.6,480,0,458.4,0,432l0-416 c0-26.4, 21.6-48, 48-48l 384,0 c 26.4,0, 48,21.6, 48,48L 480,432 C 480,458.4, 458.4,480, 432,480z M 416,32L 64,32 
		L 64,416 l 352,0 L 416,32 zM 128,192L 352,192L 352,160L 128,160zM 128,128L 352,128L 352,96L 128,96zM 160,336A48,48 4860 1 0 256,336A48,48 4860 1 0 160,336zM 240,288l-64,0 c-26.4,0-48-14.4-48-32l0-32 l 160,0 l0,32 C 288,273.6, 266.4,288, 240,288z"/>
<glyph unicode="" d="M 446.059,385.941l-60.117,60.118C 367.273,464.727, 330.4,480, 304,480L 80,480 C 53.6,480, 32,458.4, 32,432l0-416 c0-26.4, 21.6-48, 48-48l 352,0 
	c 26.4,0, 48,21.6, 48,48L 480,304 C 480,330.4, 464.727,367.273, 446.059,385.941z M 416,32L 96,32 L 96,416 l 208,0 c 2.479,0, 8.507-1.034, 16-3.781L 320,320 l 92.22,0 
	c 2.746-7.493, 3.78-13.521, 3.78-16L 416,32 z"/>
<glyph unicode="" d="M 446.059,385.941l-60.117,60.118C 367.273,464.727, 330.4,480, 304,480L 80,480 C 53.6,480, 32,458.4, 32,432l0-416 c0-26.4, 21.6-48, 48-48l 352,0 
	c 26.4,0, 48,21.6, 48,48L 480,304 C 480,330.4, 464.727,367.273, 446.059,385.941z M 320,412.219c 1.098-0.402, 2.226-0.84, 3.379-1.318
	c 9.030-3.741, 15.299-8.088, 17.308-10.097l 60.118-60.119c 2.009-2.009, 6.356-8.277, 10.097-17.307c 0.478-1.153, 0.916-2.281, 1.318-3.378
	L 320,320 L 320,412.219 z M 416,32L 96,32 L 96,416 l 192,0 l0-128 l 128,0 L 416,32 z"/>
<glyph unicode="" d="M 446.059,385.941l-60.117,60.118C 367.273,464.727, 330.4,480, 304,480L 80,480 C 53.6,480, 32,458.4, 32,432l0-416 c0-26.4, 21.6-48, 48-48l 352,0 
	c 26.4,0, 48,21.6, 48,48L 480,304 C 480,330.4, 464.727,367.273, 446.059,385.941z M 320,412.219c 1.098-0.402, 2.226-0.84, 3.379-1.318
	c 9.030-3.741, 15.299-8.088, 17.308-10.097l 60.118-60.119c 2.009-2.009, 6.356-8.277, 10.097-17.307c 0.478-1.153, 0.916-2.281, 1.318-3.378
	L 320,320 L 320,412.219 z M 416,32L 96,32 L 96,416 l 192,0 l0-128 l 128,0 L 416,32 zM 128,224L 384,224L 384,192L 128,192zM 128,160L 384,160L 384,128L 128,128zM 128,96L 384,96L 384,64L 128,64z"/>
<glyph unicode="" d="M 451.716,380.285 C 465.462,366.539 476.993,340.949 479.492,320 L 320,320 L 320,479.492 C 340.949,476.993 366.538,465.462 380.284,451.716 L 451.716,380.285 ZM 288,288 L 480,288 L 480,8 C 480-14 462-32 440-32 L 72-32 C 50-32 32-14 32,8 L 32,440 C 32,462 50,480 72,480 L 288,480 L 288,288 Z"/>
<glyph unicode="" d="M 451.716,380.285c 13.746-13.746, 25.277-39.336, 27.776-60.285L 320,320 L 320,479.492 c 20.949-2.499, 46.538-14.030, 60.284-27.776
	L 451.716,380.285z M 288,288L 288,480 L 72,480 C 50,480, 32,462, 32,440l0-432 c0-22, 18-40, 40-40l 368,0 c 22,0, 40,18, 40,40L 480,288 L 288,288 z M 416,32L 96,32 l0,32 l 320,0 L 416,32 z
	 M 416,96L 96,96 l0,32 l 320,0 L 416,96 z M 416,160L 96,160 l0,32 l 320,0 L 416,160 z"/>
<glyph unicode="" d="M 483.717,284.285 C 497.463,270.539 508.994,244.949 511.492,224 L 352,224 L 352,383.492 C 372.949,380.993 398.539,369.462 412.285,355.716 L 483.717,284.285 ZM 320,192 L 512,192 L 512,8 C 512-14 494-32 472-32 L 168-32 C 146-32 128-14 128,8 L 128,344 C 128,366 146,384 168,384 L 320,384 L 320,192 ZM 96,416 L 96,64 L 38,64 C 17.1,64 0,81.1 0,102 L 0,442 C 0,462.9 17.1,480 38,480 L 346,480 C 366.9,480 384,462.9 384,442 L 384,416 L 96,416 Z"/>
<glyph unicode="" d="M 451.716,380.285 C 465.462,366.539 476.993,340.949 479.492,320 L 320,320 L 320,479.492 C 340.949,476.993 366.538,465.462 380.284,451.716 L 451.716,380.285 ZM 288,288L 288,480 L 72,480 C 50,480, 32,462, 32,440l0-432 c0-22, 18-40, 40-40l 368,0 c 22,0, 40,18, 40,40L 480,288 L 288,288 z M 352,96l-64,0 l0-64 l-64,0 l0,64 l-64,0 l0,64 l 64,0 
	l0,64 l 64,0 l0-64 l 64,0 L 352,96 z"/>
<glyph unicode="" d="M 451.716,380.285 C 465.462,366.539 476.993,340.949 479.492,320 L 320,320 L 320,479.492 C 340.949,476.993 366.538,465.462 380.284,451.716 L 451.716,380.285 ZM 288,288L 288,480 L 72,480 C 50,480, 32,462, 32,440l0-432 c0-22, 18-40, 40-40l 368,0 c 22,0, 40,18, 40,40L 480,288 L 288,288 z M 352,96L 160,96 l0,64 l 192,0 L 352,96 z"/>
<glyph unicode="" d="M 419.716,380.285 C 433.462,366.539 444.993,340.949 447.492,320 L 288,320 L 288,479.492 C 308.949,476.993 334.538,465.462 348.284,451.716 L 419.716,380.285 ZM 256,288L 256,480 L 72,480 C 50,480, 32,462, 32,440l0-432 c0-22, 18-40, 40-40l 336,0 c 22,0, 40,18, 40,40L 448,288 L 256,288 z M 240,0L 112,128l 80,0 l0,96 l 96,0 l0-96 l 80,0 
	L 240,0z"/>
<glyph unicode="" d="M 419.716,380.285 C 433.462,366.539 444.993,340.949 447.492,320 L 288,320 L 288,479.492 C 308.949,476.993 334.538,465.462 348.284,451.716 L 419.716,380.285 ZM 256,288L 256,480 L 72,480 C 50,480, 32,462, 32,440l0-432 c0-22, 18-40, 40-40l 336,0 c 22,0, 40,18, 40,40L 448,288 L 256,288 z M 288,96l0-96 l-96,0 l0,96 l-80,0 l 128,128
	l 128-128L 288,96 z"/>
<glyph unicode="" d="M 451.716,380.285 C 465.462,366.539 476.993,340.949 479.492,320 L 320,320 L 320,479.492 C 340.949,476.993 366.538,465.462 380.284,451.716 L 451.716,380.285 ZM 288,288L 288,480 L 72,480 C 50,480, 32,462, 32,440l0-432 c0-22, 18-40, 40-40l 368,0 c 22,0, 40,18, 40,40L 480,288 L 288,288 z M 215,20.745L 112.373,139.372
	l 29.254,29.255L 215,111.255l 137.372,121.372l 29.256-29.254L 215,20.745z"/>
<glyph unicode="" d="M 451.716,380.285 C 465.462,366.539 476.993,340.949 479.492,320 L 320,320 L 320,479.492 C 340.949,476.993 366.538,465.462 380.284,451.716 L 451.716,380.285 ZM 288,288L 288,480 L 72,480 C 50,480, 32,462, 32,440l0-432 c0-22, 18-40, 40-40l 368,0 c 22,0, 40,18, 40,40L 480,288 L 288,288 z M 352,190.059L 289.941,128L 352,65.941
	L 352,32 l-33.941,0 L 256,94.059L 193.941,32L 160,32 l0,33.941 L 222.059,128L 160,190.059L 160,224 l 33.941,0 L 256,161.941L 318.059,224L 352,224 L 352,190.059 z"/>
<glyph unicode="" d="M 352,480L 32,480 l0-512 l 448,0 L 480,352 L 352,480z M 448,0L 64,0 L 64,448 l 288,0 l0-96 l 96,0 L 448,0 z"/>
<glyph unicode="" d="M 352,480L 32,480 l0-512 l 448,0 L 480,352 L 352,480z M 448,0L 64,0 L 64,448 l 288,0 l0-96 l 96,0 L 448,0 zM 128,96L 384,96L 384,64L 128,64zM 128,160L 384,160L 384,128L 128,128zM 128,224L 384,224L 384,192L 128,192z"/>
<glyph unicode="" d="M 448,96L 448,160L 384,160L 384,96L 320,96L 320,32L 384,32L 384-32L 448-32L 448,32L 512,32L 512,96 	zM 32,448L 320,448L 320,352L 416,352L 416,192L 448,192L 448,352L 320,480L0,480L0-32L 288-32L 288,0L 32,0 	z"/>
<glyph unicode="" d="M 320,96L 512,96L 512,32L 320,32zM 32,448L 320,448L 320,352L 416,352L 416,192L 448,192L 448,352L 320,480L0,480L0-32L 288-32L 288,0L 32,0 	z"/>
<glyph unicode="" d="M 288,256L 192,256L 192,96L 112,96L 240-32L 368,96L 288,96 	zM 320,480L 32,480L 32,288L 48-32L 64,288L 64,448L 320,448L 320,352L 416,352L 416,288L 432-32L 448,288L 448,352 	z"/>
<glyph unicode="" d="M 192-32l 96,0 L 288,128 l 80,0 L 240,256L 112,128l 80,0 L 192-32 z M 320,480L 32,480 l0-192 l 16-320l 16,320L 64,448 l 256,0 l0-96 l 96,0 l0-64 l 16-320l 16,320l0,64 L 320,480z"/>
<glyph unicode="" d="M 352-32L 256,80L 296.75,120.75L 352,65.125L 480,192L 512,160 	zM 32,448l 288,0 l0-96 l 96,0 l0-160 l 32,0 L 448,352 L 320,480L0,480 l0-512 l 288,0 l0,32 L 32,0 L 32,448 z"/>
<glyph unicode="" d="M 32,448l 288,0 l0-96 l 96,0 l0-160 l 32,0 L 448,352 L 320,480L0,480 l0-512 l 288,0 l0,32 L 32,0 L 32,448 zM 461.256,64L 512,114.744L 512,160L 466.744,160L 416,109.256L 365.256,160L 320,160L 320,114.744L 370.744,64L 320,13.256L 320-32L 365.256-32L 416,18.744L 466.744-32L 512-32L 512,13.256 z"/>
<glyph unicode="" d="M 451.716,380.285l-71.432,71.431C 364.728,467.272, 334,480, 312,480L 72,480 C 50,480, 32,462, 32,440l0-432 c0-22, 18-40, 40-40l 368,0 c 22,0, 40,18, 40,40
	L 480,312 C 480,334, 467.272,364.729, 451.716,380.285z M 429.089,357.657c 1.565-1.565, 3.125-3.487, 4.64-5.657L 352,352 L 352,433.728 
	c 2.17-1.515, 4.092-3.075, 5.657-4.64L 429.089,357.657z M 448,8c0-4.336-3.664-8-8-8L 72,0 c-4.336,0-8,3.664-8,8L 64,440 c0,4.336, 3.664,8, 8,8
	l 240,0 c 2.416,0, 5.127-0.305, 8-0.852L 320,320 l 127.148,0 c 0.547-2.873, 0.852-5.583, 0.852-8L 448,8 z"/>
<glyph unicode="" d="M 416,352l-96,0 L 320,384 L 224,480L0,480 l0-384 l 192,0 l0-128 l 320,0 L 512,256 L 416,352z M 416,306.745L 466.745,256L 416,256 L 416,306.745 z M 224,434.745L 274.745,384L 224,384 
	L 224,434.745 z M 32,448l 160,0 l0-96 l 96,0 l0-224 L 32,128 L 32,448 z M 480,0L 224,0 l0,96 l 96,0 L 320,320 l 64,0 l0-96 l 96,0 L 480,0 z"/>
<glyph unicode="" d="M 432,416l-32,0 l0-32 l 16,0 l0-256 L 288,128 l0-128 L 96,0 L 96,384 l 16,0 L 112,416 L 80,416 c-8.801,0-16-7.2-16-16l0-416 c0-8.8, 7.199-16, 16-16l 252,0 l 116,116L 448,400 
	C 448,408.8, 440.8,416, 432,416z M 320,0l0,96 l 96,0 L 320,0zM 384,416l-64,0 L 320,448 c0,17.6-14.4,32-32,32l-64,0 c-17.602,0-32-14.4-32-32l0-32 l-64,0 l0-64 l 256,0 L 384,416 z M 288,416l-64,0 L 224,447.943 
	c 0.017,0.019, 0.036,0.039, 0.057,0.057l 63.884,0 c 0.021-0.018, 0.041-0.038, 0.059-0.057L 288,416 z"/>
<glyph unicode="" d="M 432,416 C 440.8,416 448,408.8 448,400 L 448,96 L 320-32 L 80-32 C 71.199-32 64-24.8 64-16 L 64,400 C 64,408.8 71.199,416 80,416 L 112,416 L 112,384 L 96,384 L 96,0 L 288,0 L 288,128 L 416,128 L 416,384 L 400,384 L 400,416 L 432,416 ZM 384,416l-64,0 L 320,448 c0,17.6-14.4,32-32,32l-64,0 c-17.602,0-32-14.4-32-32l0-32 l-64,0 l0-64 l 256,0 L 384,416 z M 288,416l-64,0 L 224,447.943 
		c 0.017,0.019, 0.036,0.039, 0.057,0.057l 63.884,0 c 0.021-0.018, 0.041-0.038, 0.059-0.057L 288,416 z"/>
<glyph unicode="" d="M 320,352L 320,480 L 96,480 L0,384l0-288 l 192,0 l0-128 l 320,0 L 512,352 L 320,352 z M 96,434.745L 96,384 L 45.255,384 L 96,434.745z M 32,128L 32,352 l 96,0 L 128,448 l 160,0 l0-96 l-96-96l0-128 L 32,128 z
	 M 288,306.745L 288,256 l-50.745,0 L 288,306.745z M 480,0L 224,0 L 224,224 l 96,0 l0,96 l 160,0 L 480,0 z"/>
<glyph unicode="" d="M 352,416l-64,0 L 288,448 c0,17.6-14.4,32-32,32l-64,0 c-17.602,0-32-14.4-32-32l0-32 L 96,416 l0-64 l 256,0 L 352,416 z M 256,416l-64,0 L 192,447.943 
		c 0.017,0.019, 0.036,0.039, 0.057,0.057l 63.884,0 c 0.021-0.018, 0.041-0.038, 0.059-0.057L 256,416 zM 416,320L 416,400 c0,8.8-7.2,16-16,16l-32,0 l0-32 l 16,0 l0-64 L 192,320 l0-224 L 64,96 L 64,384 l 16,0 L 80,416 L 48,416 c-8.801,0-16-7.2-16-16l0-320 c0-8.8, 7.199-16, 16-16l 144,0 
		l0-96 l 224,0 l 96,96L 512,320 L 416,320 z M 416,13.255L 416,64 l 50.745,0 L 416,13.255z M 480,96l-96,0 l0-96 L 224,0 L 224,288 l 256,0 L 480,96 z"/>
<glyph unicode="" d="M 416,320L 416,400 c0,8.8-7.2,16-16,16L 288,416 L 288,448 c0,17.6-14.4,32-32,32l-64,0 c-17.602,0-32-14.4-32-32l0-32 L 48,416 c-8.801,0-16-7.2-16-16l0-320 
	c0-8.8, 7.199-16, 16-16l 144,0 l0-96 l 224,0 l 96,96L 512,320 L 416,320 z M 192,447.943c 0.017,0.019, 0.036,0.039, 0.057,0.057l 63.884,0 
	c 0.021-0.018, 0.041-0.038, 0.059-0.057L 256,416 l-64,0 L 192,447.943 z M 96,352L 96,384 l 256,0 l0-32 L 96,352 z M 416,13.255L 416,64 l 50.745,0 L 416,13.255z M 480,96l-96,0 l0-96 
	L 224,0 L 224,288 l 256,0 L 480,96 z"/>
<glyph unicode="" d="M 352,416l-64,0 L 288,448 c0,17.6-14.4,32-32,32l-64,0 c-17.602,0-32-14.4-32-32l0-32 L 96,416 l0-64 l 256,0 L 352,416 z M 256,416l-64,0 L 192,447.943 
		c 0.017,0.019, 0.036,0.039, 0.057,0.057l 63.884,0 c 0.021-0.018, 0.041-0.038, 0.059-0.057L 256,416 zM 416,320L 416,400 c0,8.8-7.2,16-16,16l-32,0 l0-32 l 16,0 l0-64 l-96,0 l-96-96l0-128 L 64,96 L 64,384 l 16,0 L 80,416 L 48,416 c-8.801,0-16-7.2-16-16l0-320 
		c0-8.8, 7.199-16, 16-16l 144,0 l0-96 l 320,0 L 512,320 L 416,320 z M 288,274.745L 288,224 l-50.745,0 L 288,274.745z M 480,0L 224,0 L 224,192 l 96,0 l0,96 l 160,0 L 480,0 z"/>
<glyph unicode="" d="M 440,352l-24,0 l0,24 c0,22.056-17.944,40-40,40l-24,0 L 352,440 c0,22.056-17.943,40-40,40l-240,0 c-22.056,0-40-17.944-40-40l0-304 
	c0-22.057, 17.944-40, 40-40l 24,0 l0-24 c0-22.057, 17.944-40, 40-40l 24,0 l0-24 c0-22.056, 17.944-40, 40-40l 240,0 c 22.056,0, 40,17.944, 40,40L 480,312 
	C 480,334.056, 462.056,352, 440,352z M 72.001,128c-4.4,0-8,3.6-8,8L 64.001,440 c0,4.4, 3.6,8, 8,8l 240,0 c 4.4,0, 8-3.6, 8-8l0-24 L 136,416 
	c-22.056,0-40-17.944-40-40l0-248 L 72.001,128 z M 136,64c-4.4,0-8,3.6-8,8L 128,376 c0,4.4, 3.6,8, 8,8l 240,0 c 4.4,0, 8-3.6, 8-8l0-24 L 200,352 
	c-22.056,0-40-17.944-40-40l0-248 L 136,64 z M 448,8c0-4.4-3.6-8-8-8L 200,0 c-4.4,0-8,3.6-8,8L 192,312 c0,4.4, 3.6,8, 8,8l 240,0 c 4.4,0, 8-3.6, 8-8L 448,8 z"/>
<glyph unicode="" d="M 512,320L 256,448L0,320l 256-128L 512,320z M 256,405.515L 427.029,320L 256,234.485L 84.971,320L 256,405.515zM 460.722,249.639 L 512,224 L 256,96 L 0,224 L 51.278,249.639 L 256,147.278 ZM 460.722,153.639 L 512,128 L 256,0 L 0,128 L 51.278,153.639 L 256,51.278 Z"/>
<glyph unicode="" d="M 256,192 L 0,320 L 256,448 L 512,320 ZM 460.722,249.639 L 512,224 L 256,96 L 0,224 L 51.278,249.639 L 256,147.278 ZM 460.722,153.639 L 512,128 L 256,0 L 0,128 L 51.278,153.639 L 256,51.278 Z"/>
<glyph unicode="" d="M 0,320 L 512,320 L 480,0 L 32,0 L 0,320 Z M 464,384 L 480,352 L 32,352 L 64,416 L 240,416 L 256,384 L 464,384 Z"/>
<glyph unicode="" d="M 480,352 L 32,352 L 64,416 L 240,416 L 256,384 L 464,384 ZM0,320l 32-320l 448,0 l 32,320L0,320 z M 256,16L 112,160l 112,0 l0,95.508 l 64,0 L 288,160 l 112,0 L 256,16z"/>
<glyph unicode="" d="M 480,352 L 32,352 L 64,416 L 240,416 L 256,384 L 464,384 ZM0,320l 32-320l 448,0 l 32,320L0,320 z M 288,128l0-95.508 l-64,0 L 224,128 L 112,128 l 144,144l 144-144L 288,128 z"/>
<glyph unicode="" d="M 480,352 L 32,352 L 64,416 L 240,416 L 256,384 L 464,384 ZM 250,80 C 250,50.608 258.504,23.169 273.171,0 L 32,0 L 0,320 L 512,320 L 499.237,192.376 C 472.772,215.774 438.019,230 400,230 C 317.29,230 250,162.71 250,80 ZM 400,192c-61.855,0-112-50.145-112-112s 50.145-112, 112-112s 112,50.145, 112,112S 461.855,192, 400,192z M 416,64l0-64 l-32,0 l0,64 
	l-64,0 l0,32 l 64,0 l0,64 l 32,0 l0-64 l 64,0 l0-32 L 416,64 z"/>
<glyph unicode="" d="M 480,352 L 32,352 L 64,416 L 240,416 L 256,384 L 464,384 ZM0,320l 32-320l 448,0 l 32,320L0,320 z M 352,128l-64,0 l0-64 l-64,0 l0,64 l-64,0 l0,64 l 64,0 l0,64 l 64,0 l0-64 l 64,0 L 352,128 z"/>
<glyph unicode="" d="M 480,352 L 32,352 L 64,416 L 240,416 L 256,384 L 464,384 ZM 250,80 C 250,50.608 258.504,23.169 273.171,0 L 32,0 L 0,320 L 512,320 L 499.237,192.376 C 472.772,215.774 438.019,230 400,230 C 317.29,230 250,162.71 250,80 ZM 400,192c-61.855,0-112-50.145-112-112s 50.145-112, 112-112s 112,50.145, 112,112S 461.855,192, 400,192z M 320,64l0,32 l 160,0 l0-32 
	L 320,64 z"/>
<glyph unicode="" d="M 480,352 L 32,352 L 64,416 L 240,416 L 256,384 L 464,384 ZM0,320l 32-320l 448,0 l 32,320L0,320 z M 352,128L 160,128 l0,64 l 192,0 L 352,128 z"/>
<glyph unicode="" d="M 480,352 L 32,352 L 64,416 L 240,416 L 256,384 L 464,384 ZM0,320l 32-320l 448,0 l 32,320L0,320 z M 215,52.745L 112.373,171.372l 29.254,29.255L 215,143.255l 137.372,121.372l 29.256-29.254
		L 215,52.745z"/>
<glyph unicode="" d="M 480,352 L 32,352 L 64,416 L 240,416 L 256,384 L 464,384 ZM0,320l 32-320l 448,0 l 32,320L0,320 z M 352,222.059L 289.941,160L 352,97.941L 352,64 l-33.941,0 L 256,126.059L 193.941,64L 160,64 l0,33.941 
		L 222.059,160L 160,222.059L 160,256 l 33.941,0 L 256,193.941L 318.059,256L 352,256 L 352,222.059 z"/>
<glyph unicode="" d="M 224,416L 288,352L 512,352L 512,0L0,0L0,416 z"/>
<glyph unicode="" d="M 416,0L 512,256L 96,256L0,0 zM 64,288 L 0,0 L 0,416 L 144,416 L 208,352 L 416,352 L 416,288 Z"/>
<glyph unicode="" d="M 288,352l-64,64L0,416 l0-416 l 512,0 L 512,352 L 288,352 z M 274.745,320L 288,320 l 192,0 l0-4 L 32,316 l0,8 l 238.745,0 L 274.745,320z M 32,32l0,4 l 448,0 l0-4 L 32,32 z M 32,44l0,8 
	l 448,0 l0-8 L 32,44 z M 32,60l0,8 l 448,0 l0-8 L 32,60 z M 32,76l0,8 l 448,0 l0-8 L 32,76 z M 32,92l0,8 l 448,0 l0-8 L 32,92 z M 32,108l0,8 l 448,0 l0-8 L 32,108 z M 32,124l0,8 l 448,0 l0-8 L 32,124 z M 32,140l0,8 
	l 448,0 l0-8 L 32,140 z M 32,156l0,8 l 448,0 l0-8 L 32,156 z M 32,172l0,8 l 448,0 l0-8 L 32,172 z M 32,188l0,8 l 448,0 l0-8 L 32,188 z M 32,204l0,8 l 448,0 l0-8 L 32,204 z M 32,220l0,8 l 448,0 l0-8 L 32,220 z M 32,236l0,8 
	l 448,0 l0-8 L 32,236 z M 32,252l0,8 l 448,0 l0-8 L 32,252 z M 32,268l0,8 l 448,0 l0-8 L 32,268 z M 32,284l0,8 l 448,0 l0-8 L 32,284 z M 32,300l0,8 l 448,0 l0-8 L 32,300 z M 210.745,384l 4-4L 32,380 l0,4 L 210.745,384 z
	 M 222.745,372l 8-8L 32,364 l0,8 L 222.745,372 z M 238.745,356l 8-8L 32,348 l0,8 L 238.745,356 z M 254.746,340l 8-8L 32,332 l0,8 L 254.746,340 z"/>
<glyph unicode="" d="M 210.745,384l 54.628-54.627l 9.372-9.373L 288,320 l 192,0 l0-288 L 32,32 L 32,384 L 210.745,384  M 224,416L0,416 l0-416 l 512,0 L 512,352 L 288,352 L 224,416L 224,416z"/>
<glyph unicode="" d="M 288,352l-64,64L0,416 l0-416 l 512,0 L 512,352 L 288,352 z M 352,128l-64,0 l0-64 l-64,0 l0,64 l-64,0 l0,64 l 64,0 l0,64 l 64,0 l0-64 l 64,0 L 352,128 z"/>
<glyph unicode="" d="M 288,352l-64,64L0,416 l0-416 l 512,0 L 512,352 L 288,352 z M 352,128L 160,128 l0,64 l 192,0 L 352,128 z"/>
<glyph unicode="" d="M 288,352l-64,64L0,416 l0-416 l 512,0 L 512,352 L 288,352 z M 480,32L 32,32 L 32,384 l 178.745,0 l 54.628-54.627l 9.372-9.373L 288,320 l 192,0 L 480,32 zM 288,256L 224,256L 224,192L 160,192L 160,128L 224,128L 224,64L 288,64L 288,128L 352,128L 352,192L 288,192 	z"/>
<glyph unicode="" d="M 288,352l-64,64L0,416 l0-416 l 512,0 L 512,352 L 288,352 z M 480,32L 32,32 L 32,384 l 178.745,0 l 54.628-54.627l 9.372-9.373L 288,320 l 192,0 L 480,32 zM 160,192L 352,192L 352,128L 160,128z"/>
<glyph unicode="" d="M 288,352l-64,64L0,416 l0-416 l 512,0 L 512,352 L 288,352 z M 256,32L 128,160l 96,0 L 224,288 l 64,0 l0-128 l 96,0 L 256,32z"/>
<glyph unicode="" d="M 288,352L 224,416L0,416L0,0L 224,0L 224,128L 128,128L 256,256L 384,128L 288,128L 288,0L 512,0L 512,352 z"/>
<glyph unicode="" d="M 288,352l-64,64L0,416 l0-416 l 512,0 L 512,352 L 288,352 z M 480,32L 256,32 L 32,32 L 32,384 l 178.745,0 l 54.628-54.627l 9.372-9.373L 288,320 l 192,0 L 480,32 zM 288,160L 288,256L 224,256L 224,160L 128,160L 256,32L 384,160 	z"/>
<glyph unicode="" d="M 288,352l-64,64L0,416 l0-416 l 512,0 L 512,352 L 288,352 z M 480,32L 288,32 l0,96 l 96,0 L 256,256L 128,128l 96,0 l0-96 L 32,32 L 32,384 l 178.745,0 l 54.628-54.627l 9.372-9.373
	L 288,320 l 192,0 L 480,32 z"/>
<glyph unicode="" d="M 492.25,352L 19.75,352 c-13.2,0-21.882-10.59-19.293-23.534l 58.836-272.932C 61.882,42.59, 74.8,32, 88,32l 336,0 
		c 13.2,0, 26.118,10.59, 28.707,23.534l 58.836,272.932C 514.132,341.41, 505.45,352, 492.25,352zM 448,392c0,13.255-10.745,24-24,24L 208,416 l-16,32L 88,448 c-13.255,0-24-10.745-24-24l0-56 l 384,0 L 448,392 z"/>
<glyph unicode="" d="M 492.25,288 C 505.45,288 514.132,277.41 511.543,264.466 L 452.707,55.534 C 450.118,42.59 437.2,32 424,32 L 88,32 C 74.8,32 61.882,42.59 59.293,55.534 L 0.457,264.466 C -2.132,277.41 6.55,288 19.75,288 L 492.25,288 Z M 448,392 L 448,320 L 64,320 L 64,424 C 64,437.255 74.745,448 88,448 L 192,448 L 208,416 L 424,416 C 437.255,416 448,405.255 448,392 Z"/>
<glyph unicode="" d="M 492.25,352L 448,352 L 448,392 c0,13.255-10.745,24-24,24L 208,416 l-16,32L 88,448 c-13.255,0-24-10.745-24-24l0-72 L 19.75,352 
	c-13.2,0-21.882-10.59-19.293-23.534l 58.836-272.932C 61.882,42.59, 74.8,32, 88,32l 336,0 c 13.2,0, 26.118,10.59, 28.707,23.534
	l 58.836,272.932C 514.132,341.41, 505.45,352, 492.25,352z M 96,416l 76.223,0 l 16-32L 416,384 l0-32 L 96,352 L 96,416 z M 421.797,64L 90.203,64 L 35.017,320l 441.966,0 
	L 421.797,64z"/>
<glyph unicode="" d="M 492.25,288L 448,288 L 448,392 c0,13.255-10.745,24-24,24L 208,416 l-16,32L 88,448 c-13.255,0-24-10.745-24-24l0-136 L 19.75,288 
	c-13.2,0-21.882-10.59-19.293-23.534l 58.836-208.932C 61.882,42.59, 74.8,32, 88,32l 336,0 c 13.2,0, 26.118,10.59, 28.707,23.534
	l 58.836,208.932C 514.132,277.41, 505.45,288, 492.25,288z M 96,416l 76.223,0 l 16-32L 416,384 l0-96 L 96,288 L 96,416 z M 421.797,64L 90.203,64 L 35.017,256l 441.966,0 
	L 421.797,64z"/>
<glyph unicode="" d="M 32,480l0-512 l 448,0 L 480,480 L 32,480 z M 448,0L 64,0 L 64,448 l 384,0 L 448,0 zM 96,384L 256,384L 256,352L 96,352zM 96,320L 256,320L 256,288L 96,288zM 96,256L 256,256L 256,224L 96,224zM 96,192.32L 256,192.32L 256,160.32L 96,160.32zM 96,128L 256,128L 256,96L 96,96zM 96,64L 416,64L 416,32L 96,32zM 384,256 L 384,96 L 352,144 L 320,96 L 320,256 ZM 416,370.746 L 397.255,352 L 416,333.254 L 416,320 L 384,320 L 384,288 L 370.745,288 L 352,306.745 L 333.255,288 L 320,288 L 320,320 L 288,320 L 288,333.254 L 306.745,352 L 288,370.746 L 288,384 L 320,384 L 320,416 L 333.255,416 L 352,397.255 L 370.745,416 L 384,416 L 384,384 L 416,384 Z"/>
<glyph unicode="" d="M 255.645,480C 185.511,480, 123.788,454.045, 76.090,405.653
		c-49.086-49.8-75.735-114.324-75.735-181.661c0-68.027, 25.939-131.147, 75.041-180.249C 124.49-5.351, 188.312-32, 255.645-32
		c 67.333,0, 132.56,26.649, 183.058,76.445c 47.697,46.995, 72.941,109.413, 72.941,179.547c0,69.439-25.244,132.563-73.643,180.959
		C 388.908,454.045, 325.779,480, 255.645,480z M 256.347,433.707c 57.512,0, 108.711-21.742, 148.694-61.72
		c 39.271-39.28, 60.311-91.178, 60.311-147.995c0-57.511-20.338-108.001-59.609-146.587c-41.385-40.676-94.684-62.418-149.395-62.418
		c-55.404,0-107.314,21.742-147.289,61.716c-39.974,39.981-62.426,92.586-62.426,147.289c0,55.413, 22.452,108.013, 62.426,148.697
		C 148.338,412.663, 198.836,433.707, 256.347,433.707zM 253.042,266.53c-14.453,26.373-39.131,36.865-67.768,36.865
		c-41.686,0-74.867-29.489-74.867-79.403c0-50.759, 31.193-79.396, 76.287-79.396c 28.922,0, 53.599,15.881, 67.207,39.981
		l-31.762,16.165c-7.092-17.017-17.868-22.113-31.477-22.113c-23.533,0-34.311,19.564-34.311,45.362
		c0,25.813, 9.073,45.378, 34.311,45.378c 6.808,0, 20.416-3.692, 28.361-20.701L 253.042,266.53zM 400.725,266.53c-14.461,26.373-39.129,36.865-67.766,36.865
		c-41.688,0-74.867-29.489-74.867-79.403c0-50.759, 31.193-79.396, 76.287-79.396c 28.92,0, 53.59,15.881, 67.199,39.981l-31.762,16.165
		c-7.084-17.017-17.861-22.113-31.479-22.113c-23.525,0-34.309,19.564-34.309,45.362c0,25.813, 9.080,45.378, 34.309,45.378
		c 6.809,0, 20.418-3.692, 28.369-20.701L 400.725,266.53z"/>
<glyph unicode="" d="M 500.32,236.284L 380.744,355.716C 365.168,371.272, 334.403,384, 312.377,384L 40.048,384 C 18.022,384,0,366,0,344l0-272 
	c0-22, 18.022-40, 40.048-40l 272.329,0 c 22.026,0, 52.791,12.728, 68.367,28.284L 500.32,179.716
	C 515.896,195.272, 515.896,220.728, 500.32,236.284z M 368,160c-26.51,0-48,21.49-48,48s 21.49,48, 48,48s 48-21.49, 48-48
	S 394.51,160, 368,160z"/>
<glyph unicode="" d="M 312.279,320 L 64,320 L 64,96 L 312.28,96 C 318.076,96.262 331.297,101.729 335.588,105.638 L 438.074,208 L 335.589,310.361 C 331.297,314.271 318.076,319.738 312.279,320 Z M 312.377,384 L 312.377,384 C 334.403,384 365.168,371.272 380.744,355.716 L 500.32,236.284 C 515.895,220.728 515.895,195.273 500.32,179.716 L 380.744,60.284 C 365.168,44.728 334.403,32 312.377,32 L 40.048,32 C 18.022,32 0,50 0,72 L 0,344 C 0,366 18.022,384 40.048,384 L 312.377,384 ZM 256,208A48,48 2700 1 0 352,208A48,48 2700 1 0 256,208z"/>
<glyph unicode="" d="M 312.377,352 L 40.048,352 C 35.686,352 32,348.336 32,344 L 32,72 C 32,67.664 35.685,64 40.048,64 L 312.377,64 C 325.904,64 348.567,73.374 358.131,82.926 L 477.707,202.357 C 479.703,204.352 480.002,206.749 480.002,208 C 480.002,209.251 479.703,211.649 477.706,213.644 L 358.131,333.075 C 348.567,342.625 325.904,352 312.377,352 Z M 312.377,384 L 312.377,384 C 334.403,384 365.168,371.272 380.744,355.716 L 500.32,236.284 C 515.895,220.728 515.895,195.273 500.32,179.716 L 380.744,60.284 C 365.168,44.728 334.403,32 312.377,32 L 40.048,32 C 18.022,32 0,50 0,72 L 0,344 C 0,366 18.022,384 40.048,384 L 312.377,384 ZM 288,208A48,48 2700 1 0 384,208A48,48 2700 1 0 288,208z"/>
<glyph unicode="" d="M 272,480L0,208l 240-240l 272,272L 512,480 L 272,480 z M 400,320c-26.51,0-48,21.49-48,48s 21.49,48, 48,48s 48-21.49, 48-48S 426.51,320, 400,320z"/>
<glyph unicode="" d="M 463.906,480L 319.625,480 c-26.453,0-63.398-15.303-82.102-34.007L 14.028,222.498c-18.704-18.704-18.704-49.312,0-68.016
	l 172.455-172.453c 18.704-18.705, 49.311-18.705, 68.015,0l 223.495,223.494C 496.697,224.228, 512,261.174, 512,287.625L 512,431.906 
	C 512,458.358, 490.357,480, 463.906,480z M 400,320c-26.51,0-48,21.49-48,48s 21.49,48, 48,48s 48-21.49, 48-48S 426.51,320, 400,320z"/>
<glyph unicode="" d="M 448,416 L 298.51,416 L 90.51,208 L 240,58.51 L 448,266.51 L 448,416 Z M 512,480 L 512,480 L 512,240 L 240-32 L 0,208 L 272,480 L 512,480 ZM 320,336A48,48 2700 1 0 416,336A48,48 2700 1 0 320,336z"/>
<glyph unicode="" d="M 447.875,415.874 L 319.625,415.874 C 316.777,415.874 309.256,414.513 300.207,410.765 C 291.16,407.017 284.881,402.662 282.867,400.649 L 70.707,188.489 L 220.49,38.707 L 432.649,250.866 C 434.662,252.88 439.018,259.159 442.766,268.208 C 446.516,277.257 447.875,284.777 447.875,287.624 L 447.875,415.875 Z M 463.906,480 L 463.906,480 C 490.357,480 512,458.357 512,431.906 L 512,287.624 C 512,261.173 496.697,224.228 477.993,205.522 L 254.498-17.972 C 245.146-27.324 232.817-32 220.49-32 C 208.163-32 195.835-27.325 186.483-17.972 L 14.028,154.481 C -4.676,173.185 -4.676,203.793 14.028,222.497 L 237.523,445.992 C 256.227,464.696 293.172,480 319.625,480 L 463.906,480 ZM 320,336A48,48 2700 1 0 416,336A48,48 2700 1 0 320,336z"/>
<glyph unicode="" d="M 496,448L 384,448 c-26.4,0-63.273-15.273-81.941-33.941L 113.941,225.941c-18.667-18.667-18.667-49.214,0-67.882l 140.118-140.117
	c 18.667-18.668, 49.214-18.668, 67.882,0l 188.117,188.117C 528.727,224.727, 544,261.6, 544,288L 544,400 C 544,426.4, 522.4,448, 496,448z M 432,288
	c-26.51,0-48,21.49-48,48s 21.49,48, 48,48s 48-21.49, 48-48S 458.51,288, 432,288zM 43.313,180.687 L 214.502,9.498 C 196.37-0.082 173.271,2.729 158.059,17.942 L 17.941,158.059 C -0.726,176.727 -0.726,207.274 17.941,225.941 L 206.059,414.059 C 224.727,432.727 261.6,448 288,448 L 43.313,203.314 C 37.091,197.091 37.091,186.91 43.313,180.687 Z" horiz-adv-x="544"/>
</font>
</defs>
</svg>
